<?xml version="1.0" standalone="no"?>
<!DOCTYPE svg PUBLIC "-//W3C//DTD SVG 1.1//EN" "http://www.w3.org/Graphics/SVG/1.1/DTD/svg11.dtd" >
<svg xmlns="http://www.w3.org/2000/svg" xmlns:xlink="http://www.w3.org/1999/xlink" version="1.1">
<metadata>
Created by FontForge 20200427 at Sun Jun 26 01:45:49 2016
 By www
Copyright (c) 2016 Miguel Reyes under exclusive license to Schwartzco Inc. / Commercial Type. All rights reserved.
</metadata>
<defs>
<font id="Canela-Regular" horiz-adv-x="300" >
  <font-face 
    font-family="Canela"
    font-weight="400"
    font-stretch="normal"
    units-per-em="1000"
    panose-1="0 0 0 0 0 0 0 0 0 0"
    ascent="775"
    descent="-225"
    x-height="477"
    cap-height="732"
    bbox="-135 -260 1143 1139"
    underline-thickness="20"
    underline-position="-80"
    unicode-range="U+000D-FB04"
  />
<missing-glyph horiz-adv-x="161" 
 />
    <glyph glyph-name="f_b" unicode="fb" horiz-adv-x="851" 
d="M574 -15q-98 0 -160 50l-51 -45h-4v618q0 65 -27 108.5t-63 43.5q-35 0 -57.5 -45.5t-22.5 -127.5v-110h118v-18h-118v-320q0 -96 23 -137v-2h-147v2q24 38 24 137v320h-63v18h63v66q0 107 58.5 171t143.5 64q64 0 102 -24l66 24v-370h2q73 84 168 84q89 0 140.5 -69
t51.5 -179q0 -113 -64 -186t-183 -73zM584 3q60 0 96 60t36 162q0 103 -39 152.5t-108 49.5q-63 0 -110 -41v-201q0 -94 38.5 -138t86.5 -44z" />
    <glyph glyph-name="f_f_b" unicode="ffb" horiz-adv-x="1121" 
d="M844 -15q-96 0 -160 50l-51 -45h-4v618q0 65 -27 108.5t-63 43.5q-35 0 -57.5 -45.5t-22.5 -127.5v-110h118v-18h-118v-320q0 -96 23 -137v-2h-147v2q24 38 24 137v320h-170v-320q0 -96 23 -137v-2h-147v2q24 38 24 137v320h-63v18h63v46q0 107 55 171t131 64
q40 0 62 -14l11 -105l-6 -2q-64 103 -95 103q-23 0 -40.5 -46.5t-17.5 -126.5v-90h170v66q0 107 58.5 171t143.5 64q64 0 102 -24l66 24v-370h2q73 84 168 84q89 0 140.5 -69t51.5 -179q0 -113 -64 -186t-183 -73zM854 3q60 0 96 60t36 162q0 103 -39 152.5t-108 49.5
q-63 0 -110 -41v-201q0 -94 38.5 -138t86.5 -44z" />
    <glyph glyph-name="f_f_h" unicode="ffh" horiz-adv-x="1101" 
d="M65 2q24 38 24 137v320h-63v18h63v46q0 107 55 171t131 64q40 0 62 -14l11 -105l-6 -2q-64 103 -95 103q-23 0 -40.5 -46.5t-17.5 -126.5v-90h170v66q0 107 58.5 171t143.5 64q64 0 102 -24l66 24v-378q76 92 161 92q68 0 105 -38.5t37 -106.5v-153q0 -76 3.5 -115
t18.5 -77v-2h-145v2q23 68 23 192v130q0 46 -23 76.5t-69 30.5q-62 0 -111 -51v-240q0 -97 23 -138v-2h-145v2q22 47 22 137v469q0 65 -27 108.5t-63 43.5q-35 0 -57.5 -45.5t-22.5 -127.5v-110h118v-18h-118v-320q0 -96 23 -137v-2h-147v2q24 38 24 137v320h-170v-320
q0 -96 23 -137v-2h-147v2z" />
    <glyph glyph-name="f_f_j" unicode="ffj" horiz-adv-x="800" 
d="M727 2q0 -97 -45.5 -152.5t-115.5 -64.5l-2 6q65 40 65 141v396q0 89 -35 131h-135v-320q0 -96 23 -137v-2h-147v2q24 38 24 137v320h-170v-320q0 -96 23 -137v-2h-147v2q24 38 24 137v320h-63v18h63v46q0 107 55 171t131 64q40 0 62 -14l11 -105l-6 -2q-64 103 -95 103
q-23 0 -40.5 -46.5t-17.5 -126.5v-90h170v66q0 107 59 171t144 64q69 0 107 -24l11 -155l-6 -2q-18 35 -37.5 67t-50 64t-54.5 32q-31 0 -52 -46t-21 -127v-110h129q87 0 141 20z" />
    <glyph glyph-name="f_f_k" unicode="ffk" horiz-adv-x="1038" 
d="M909 0l-172 248l115 125q24 26 32 54.5t-4 47.5v2h130v-2q-65 -29 -144 -114l-52 -57l147 -212q19 -26 29.5 -39.5t25.5 -27.5t32 -23v-2h-139zM65 2q24 38 24 137v320h-63v18h63v46q0 107 55 171t131 64q40 0 62 -14l11 -105l-6 -2q-64 103 -95 103q-23 0 -40.5 -46.5
t-17.5 -126.5v-90h170v66q0 107 58.5 171t143.5 64q64 0 102 -24l66 24v-638q0 -97 23 -138v-2h-145v2q22 47 22 137v469q0 65 -27 108.5t-63 43.5q-35 0 -57.5 -45.5t-22.5 -127.5v-110h118v-18h-118v-320q0 -96 23 -137v-2h-147v2q24 38 24 137v320h-170v-320
q0 -96 23 -137v-2h-147v2z" />
    <glyph glyph-name="f_h" unicode="fh" horiz-adv-x="831" 
d="M65 0v2q24 38 24 137v320h-63v18h63v66q0 107 58.5 171t143.5 64q64 0 102 -24l66 24v-378q76 92 161 92q68 0 105 -38.5t37 -106.5v-153q0 -76 3.5 -115t18.5 -77v-2h-145v2q23 68 23 192v130q0 46 -23 76.5t-69 30.5q-62 0 -111 -51v-240q0 -97 23 -138v-2h-145v2
q22 47 22 137v469q0 65 -27 108.5t-63 43.5q-35 0 -57.5 -45.5t-22.5 -127.5v-110h118v-18h-118v-320q0 -96 23 -137v-2h-147z" />
    <glyph glyph-name="f_j" unicode="fj" horiz-adv-x="526" 
d="M457 2q0 -97 -45.5 -152.5t-115.5 -64.5l-2 6q65 40 65 141v396q0 89 -35 131h-135v-320q0 -96 23 -137v-2h-147v2q24 38 24 137v320h-63v18h63v66q0 107 59 171t144 64q69 0 107 -24l11 -155l-6 -2q-18 35 -37.5 67t-50 64t-54.5 32q-31 0 -52 -46t-21 -127v-110h129
q87 0 141 20z" />
    <glyph glyph-name="f_k" unicode="fk" horiz-adv-x="768" 
d="M65 0v2q24 38 24 137v320h-63v18h63v66q0 107 58.5 171t143.5 64q64 0 102 -24l66 24v-638q0 -97 23 -138v-2h-145v2q22 47 22 137v469q0 65 -27 108.5t-63 43.5q-35 0 -57.5 -45.5t-22.5 -127.5v-110h118v-18h-118v-320q0 -96 23 -137v-2h-147zM639 0l-172 248l115 125
q24 26 32 54.5t-4 47.5v2h130v-2q-65 -29 -144 -114l-52 -57l147 -212q19 -26 29.5 -39.5t25.5 -27.5t32 -23v-2h-139z" />
    <glyph glyph-name="f_t" unicode="ft" horiz-adv-x="613" 
d="M599 48q-45 -63 -126 -63q-114 0 -114 121v353h-170v-320q0 -96 23 -137v-2h-147v2q24 38 24 137v320h-63v18h63v66q0 107 58.5 171t142.5 64q47 0 77 -14l11 -105l-6 -2q-14 23 -20.5 32t-22.5 30.5t-32.5 31t-32.5 9.5q-32 0 -53.5 -46t-21.5 -127v-110h118l143 113h10
v-113h129v-18h-129v-350q0 -74 72 -74q16 0 32 3.5t24.5 7.5t8.5 6z" />
    <glyph glyph-name="f_f_t" unicode="fft" horiz-adv-x="883" 
d="M869 48q-45 -63 -126 -63q-114 0 -114 121v353h-170v-320q0 -96 23 -137v-2h-147v2q24 38 24 137v320h-170v-320q0 -96 23 -137v-2h-147v2q24 38 24 137v320h-63v18h63v46q0 107 55 171t131 64q40 0 62 -14l11 -105l-6 -2q-64 103 -95 103q-23 0 -40.5 -46.5
t-17.5 -126.5v-90h170v66q0 107 58.5 171t142.5 64q47 0 77 -14l11 -105l-6 -2q-14 23 -20.5 32t-22.5 30.5t-32.5 31t-32.5 9.5q-32 0 -53.5 -46t-21.5 -127v-110h118l143 113h10v-113h129v-18h-129v-350q0 -74 72 -74q16 0 32 3.5t24.5 7.5t8.5 6z" />
    <glyph glyph-name="f_f" unicode="ff" horiz-adv-x="583" 
d="M65 2q24 38 24 137v320h-63v18h63v46q0 107 55 171t131 64q40 0 62 -14l11 -105l-6 -2q-64 103 -95 103q-23 0 -40.5 -46.5t-17.5 -126.5v-90h170v66q0 107 58.5 171t142.5 64q47 0 77 -14l11 -105l-6 -2q-14 23 -20.5 32t-22.5 30.5t-32.5 31t-32.5 9.5q-32 0 -53.5 -46
t-21.5 -127v-110h118v-18h-118v-320q0 -96 23 -137v-2h-147v2q24 38 24 137v320h-170v-320q0 -96 23 -137v-2h-147v2z" />
    <glyph glyph-name="f_i" unicode="fi" horiz-adv-x="527" 
d="M65 0v2q24 38 24 137v320h-63v18h63v66q0 107 59 171t144 64q69 0 107 -24l11 -155l-6 -2q-18 35 -37.5 67t-50 64t-54.5 32q-31 0 -52 -46t-21 -127v-110h129q87 0 141 20v-302q0 -74 4 -114.5t18 -78.5v-2h-145v2q23 97 23 192v134q0 89 -35 131h-135v-320
q0 -96 23 -137v-2h-147z" />
    <glyph glyph-name="f_l" unicode="fl" horiz-adv-x="528" 
d="M212 0h-147v2q24 38 24 137v320h-63v18h63v66q0 107 58.5 171t143.5 64q64 0 102 -24l66 24v-638q0 -97 23 -138v-2h-145v2q22 47 22 137v469q0 65 -27 108.5t-63 43.5q-35 0 -57.5 -45.5t-22.5 -127.5v-110h118v-18h-118v-320q0 -96 23 -137v-2z" />
    <glyph glyph-name="f_f_i" unicode="ffi" horiz-adv-x="797" 
d="M65 0v2q24 38 24 137v320h-63v18h63v46q0 107 55 171t131 64q40 0 62 -14l11 -105l-6 -2q-64 103 -95 103q-23 0 -40.5 -46.5t-17.5 -126.5v-90h170v66q0 107 59 171t144 64q69 0 107 -24l11 -155l-6 -2q-18 35 -37.5 67t-50 64t-54.5 32q-31 0 -52 -46t-21 -127v-110
h129q87 0 141 20v-302q0 -74 4 -114.5t18 -78.5v-2h-145v2q23 97 23 192v134q0 89 -35 131h-135v-320q0 -96 23 -137v-2h-147v2q24 38 24 137v320h-170v-320q0 -96 23 -137v-2h-147z" />
    <glyph glyph-name="f_f_l" unicode="ffl" horiz-adv-x="798" 
d="M65 2q24 38 24 137v320h-63v18h63v46q0 107 55 171t131 64q40 0 62 -14l11 -105l-6 -2q-64 103 -95 103q-23 0 -40.5 -46.5t-17.5 -126.5v-90h170v66q0 107 58.5 171t143.5 64q64 0 102 -24l66 24v-638q0 -97 23 -138v-2h-145v2q22 47 22 137v469q0 65 -27 108.5
t-63 43.5q-35 0 -57.5 -45.5t-22.5 -127.5v-110h118v-18h-118v-320q0 -96 23 -137v-2h-147v2q24 38 24 137v320h-170v-320q0 -96 23 -137v-2h-147v2z" />
    <glyph glyph-name=".notdef" horiz-adv-x="161" 
 />
    <glyph glyph-name=".null" horiz-adv-x="0" 
 />
    <glyph glyph-name="nonmarkingreturn" horiz-adv-x="333" 
 />
    <glyph glyph-name="NULL" horiz-adv-x="0" 
 />
    <glyph glyph-name="NULL" horiz-adv-x="0" 
 />
    <glyph glyph-name="CR" unicode="&#xd;" horiz-adv-x="170" 
 />
    <glyph glyph-name="space" unicode=" " horiz-adv-x="170" 
 />
    <glyph glyph-name="exclam" unicode="!" horiz-adv-x="234" 
d="M171 730l-46 -506h-16l-45 506v2h107v-2zM117 -5q-29 0 -48 19.5t-19 47.5q0 29 19 49t48 20q28 0 47.5 -20t19.5 -49q0 -27 -19.5 -47t-47.5 -20z" />
    <glyph glyph-name="quotedbl" unicode="&#x22;" horiz-adv-x="309" 
d="M35 732h104l-47 -227h-10zM170 732h104l-47 -227h-10z" />
    <glyph glyph-name="numbersign" unicode="#" horiz-adv-x="595" 
d="M414 481h-188l-42 -230h188zM368 231h-188l-43 -231h-25l43 231h-137v20h141l42 230h-137v20h141l43 231h25l-43 -231h188l43 231h25l-43 -231h140v-20h-144l-42 -230h140v-20h-144l-43 -231h-25z" />
    <glyph glyph-name="dollar" unicode="$" horiz-adv-x="553" 
d="M474 537l-9 -3q-73 155 -155 183q-11 5 -19 6v-271l31 -15q38 -19 60 -30.5t52.5 -34t47 -44.5t29 -56t12.5 -74q0 -81 -43.5 -131.5t-118.5 -69.5q-37 -8 -70 -11v-100h-25v99h-5q-101 0 -206 39l-20 185l8 3q59 -110 118 -158q49 -40 105 -48v320q-8 4 -34 17.5
t-40 20.5q-62 35 -97 80t-35 112q0 74 39.5 119t104.5 61q35 9 62 10v76h25v-75q83 0 163 -29zM348 16q37 16 56.5 50t19.5 76q0 93 -96 151l-37 21v-309q32 0 57 11zM258 727q-51 0 -80 -30.5t-29 -81.5q0 -87 108 -145q6 -4 9 -5v262h-8z" />
    <glyph glyph-name="percent" unicode="%" horiz-adv-x="771" 
d="M194 346q-69 0 -118 58t-49 143q0 86 48.5 143t118.5 57t120.5 -57.5t50.5 -142.5q0 -84 -50.5 -142.5t-120.5 -58.5zM194 361q77 0 77 186q0 185 -77 185q-41 0 -57 -48t-16 -137t16 -137.5t57 -48.5zM573 -8q-69 0 -118 58t-49 143q0 86 48.5 143t118.5 57t120.5 -57.5
t50.5 -142.5q0 -84 -50.5 -142.5t-120.5 -58.5zM573 7q77 0 77 186q0 185 -77 185q-41 0 -57 -48t-16 -137t16 -137.5t57 -48.5zM124 15l520 728l18 -12l-521 -730z" />
    <glyph glyph-name="ampersand" unicode="&#x26;" horiz-adv-x="782" 
d="M613 -15q-83 0 -159 73q-78 -73 -188 -73q-106 0 -161 55.5t-55 135.5q0 70 41 124t114 84q-39 55 -57 95.5t-18 85.5q0 81 50.5 131.5t126.5 50.5q71 0 110 -44t39 -101q0 -114 -142 -183q27 -32 80 -103q8 -10 28.5 -38.5t31 -43t28 -36t32.5 -36.5q69 107 69 203
q0 30 -12 47.5t-44 28.5v6h209v-6q-55 -19 -76 -43q-21 -21 -48 -84q-4 -10 -17.5 -40t-20.5 -46t-20 -39.5t-26 -40.5q73 -68 147 -68q68 0 93 49l4 -3q-14 -64 -54 -102.5t-105 -38.5zM322 36q66 0 117 37q-25 26 -48.5 56t-56 77.5t-39.5 57.5l-81 108q-64 -46 -64 -149
q0 -84 44.5 -135.5t127.5 -51.5zM208 614q0 -45 21 -81.5t78 -104.5q94 56 94 164q0 55 -26 95t-74 40q-39 0 -66 -29t-27 -84z" />
    <glyph glyph-name="quotesingle" unicode="'" horiz-adv-x="174" 
d="M35 732h104l-47 -227h-10z" />
    <glyph glyph-name="parenleft" unicode="(" horiz-adv-x="350" 
d="M295 -130q-99 77 -154.5 189.5t-55.5 252.5q0 139 55.5 253t154.5 190l8 -9q-123 -168 -123 -434q0 -265 123 -433z" />
    <glyph glyph-name="parenright" unicode=")" horiz-adv-x="350" 
d="M47 -121q123 168 123 433q0 266 -123 434l8 9q99 -76 154.5 -190t55.5 -253q0 -140 -55.5 -252.5t-154.5 -189.5z" />
    <glyph glyph-name="asterisk" unicode="*" horiz-adv-x="393" 
d="M196 565l-58 -130l-62 44l106 96l-142 16l23 72l124 -71l-29 140h76l-29 -140l124 71l24 -72l-143 -16l106 -96l-61 -44z" />
    <glyph glyph-name="plus" unicode="+" horiz-adv-x="532" 
d="M278 297v-209h-24v209h-209v22h209v209h24v-209h209v-22h-209z" />
    <glyph glyph-name="comma" unicode="," horiz-adv-x="256" 
d="M43 -132q63 57 63 118q0 30 -54 88v2l97 72q24 -16 39.5 -41.5t15.5 -52.5q0 -55 -47.5 -106.5t-108.5 -85.5z" />
    <glyph glyph-name="hyphen" unicode="-" horiz-adv-x="281" 
d="M30 258v50h221v-50h-221z" />
    <glyph glyph-name="period" unicode="." horiz-adv-x="256" 
d="M128 -5q-28 0 -47.5 20t-19.5 47q0 29 19.5 48.5t47.5 19.5q27 0 47 -19.5t20 -48.5q0 -27 -20 -47t-47 -20z" />
    <glyph glyph-name="slash" unicode="/" horiz-adv-x="392" 
d="M355 781h28l-380 -911h-28z" />
    <glyph glyph-name="zero" unicode="0" horiz-adv-x="676" 
d="M337 -15q-126 0 -212.5 109.5t-86.5 271.5t86.5 271.5t212.5 109.5q127 0 214 -109.5t87 -271.5t-87 -271.5t-214 -109.5zM337 5q174 0 174 361t-174 361q-172 0 -172 -361t172 -361z" />
    <glyph glyph-name="one" unicode="1" horiz-adv-x="351" 
d="M80 0v2q31 41 40.5 70t9.5 84v421h-88v10q102 55 191 155h12v-586q0 -55 9.5 -84t40.5 -70v-2h-215z" />
    <glyph glyph-name="two" unicode="2" horiz-adv-x="526" 
d="M5 0v15q203 177 281.5 296t78.5 237q0 83 -33.5 131t-96.5 48q-58 0 -96.5 -43.5t-89.5 -138.5l-10 4l26 166q77 32 172 32q123 0 183.5 -53.5t60.5 -142.5q0 -106 -86.5 -210t-272.5 -241h191q62 0 100.5 21.5t79.5 65.5l8 -3l-56 -184h-440z" />
    <glyph glyph-name="three" unicode="3" horiz-adv-x="559" 
d="M249 -15q-53 0 -106 12.5t-84 31.5l-24 156l10 2q56 -93 101.5 -137.5t108.5 -44.5q77 0 115.5 63t38.5 161q0 103 -42.5 154t-121.5 51q-75 0 -133 -44l-9 12l273 230h-318l43 100h415v-10l-330 -278q33 15 86 15q104 0 178 -59.5t74 -169.5q0 -109 -76 -177t-199 -68z
" />
    <glyph glyph-name="four" unicode="4" horiz-adv-x="567" 
d="M293 2q25 40 32.5 69.5t7.5 84.5v34h-328v14l328 528h129l-432 -518h303v236h114v-236h90l-8 -24h-82v-34q0 -55 7.5 -84.5t32.5 -69.5v-2h-194v2z" />
    <glyph glyph-name="five" unicode="5" horiz-adv-x="534" 
d="M232 -15q-108 0 -177 44l-25 156l10 2q49 -91 93 -136.5t101 -45.5q71 0 113.5 59t42.5 165q0 107 -45.5 161t-131.5 54q-75 0 -136 -42l-8 4l54 326h366l-19 -100h-341l-34 -203q62 39 145 39q111 0 185 -59.5t74 -173.5t-76 -182t-191 -68z" />
    <glyph glyph-name="six" unicode="6" horiz-adv-x="589" 
d="M302 -15q-118 0 -191 84t-73 209q0 65 21.5 129.5t66 129t124 120.5t185.5 90l3 -10q-109 -49 -175.5 -141t-92.5 -204q47 94 158 94q100 0 165.5 -64t65.5 -173q0 -116 -74 -190t-183 -74zM302 5q67 0 104 58.5t37 169.5q0 212 -145 212q-98 0 -133 -78
q-11 -54 -11 -112q0 -107 36.5 -178.5t111.5 -71.5z" />
    <glyph glyph-name="seven" unicode="7" horiz-adv-x="514" 
d="M92 0q87 308 332 632h-394l23 100h455v-10q-245 -374 -305 -722h-111z" />
    <glyph glyph-name="eight" unicode="8" horiz-adv-x="560" 
d="M275 -15q-103 0 -174 52.5t-71 140.5q0 62 40.5 110t123.5 74q-128 70 -128 189q0 85 62 140.5t156 55.5q89 0 149.5 -48t60.5 -125q0 -118 -137 -163q173 -86 173 -219q0 -91 -74 -149t-181 -58zM160 601q0 -59 41 -98t135 -82q68 57 68 156q0 72 -31 111t-90 39
q-58 0 -90.5 -35t-32.5 -91zM276 5q71 0 112 38.5t41 104.5q0 67 -47 107.5t-168 96.5q-99 -62 -99 -176q0 -79 42.5 -125t118.5 -46z" />
    <glyph glyph-name="nine" unicode="9" horiz-adv-x="589" 
d="M151 -5q106 51 172.5 141.5t94.5 200.5q-47 -91 -162 -91q-96 0 -161 64.5t-65 172.5q0 117 74 190.5t184 73.5q116 0 189.5 -84.5t73.5 -208.5q0 -65 -21.5 -129.5t-66 -129t-124 -120.5t-185.5 -90zM292 287q93 0 132 76q11 64 11 115q0 106 -36 177.5t-111 71.5
q-67 0 -104.5 -58.5t-37.5 -167.5q0 -214 146 -214z" />
    <glyph glyph-name="colon" unicode=":" horiz-adv-x="256" 
d="M128 317q-28 0 -47.5 20t-19.5 47q0 29 19.5 48.5t47.5 19.5q27 0 47 -19.5t20 -48.5q0 -27 -20 -47t-47 -20zM128 -5q-28 0 -47.5 20t-19.5 47q0 29 19.5 48.5t47.5 19.5q27 0 47 -19.5t20 -48.5q0 -27 -20 -47t-47 -20z" />
    <glyph glyph-name="semicolon" unicode=";" horiz-adv-x="256" 
d="M43 -132q63 57 63 118q0 30 -54 88v2l97 72q24 -16 39.5 -41.5t15.5 -52.5q0 -55 -47.5 -106.5t-108.5 -85.5zM128 317q-28 0 -47.5 20t-19.5 47q0 29 19.5 48.5t47.5 19.5q27 0 47 -19.5t20 -48.5q0 -27 -20 -47t-47 -20z" />
    <glyph glyph-name="less" unicode="&#x3c;" horiz-adv-x="530" 
d="M45 293v26l430 208v-26l-407 -195l407 -195v-26z" />
    <glyph glyph-name="equal" unicode="=" horiz-adv-x="532" 
d="M45 377v22h442v-22h-442zM45 237v22h442v-22h-442z" />
    <glyph glyph-name="greater" unicode="&#x3e;" horiz-adv-x="530" 
d="M55 85v26l407 195l-407 195v26l430 -208v-26z" />
    <glyph glyph-name="question" unicode="?" horiz-adv-x="427" 
d="M126 224q7 42 26.5 77.5t42 61.5t44.5 55t36.5 72.5t14.5 99.5q0 65 -26 102t-75 37q-45 0 -77 -34.5t-70 -105.5l-7 2l20 131q66 25 139 25q208 0 208 -162q0 -44 -16 -80.5t-40 -60.5t-54.5 -50t-59 -48t-53.5 -54t-37 -68h-16zM140 -5q-29 0 -48 19.5t-19 47.5
q0 29 19 49t48 20q28 0 47.5 -20t19.5 -49q0 -27 -19.5 -47t-47.5 -20z" />
    <glyph glyph-name="at" unicode="@" horiz-adv-x="857" 
d="M421 -161q-170 0 -280.5 96.5t-110.5 263.5q0 181 130 309t325 128q156 0 249 -84t93 -229q0 -122 -65 -206.5t-163 -84.5q-53 0 -82.5 27.5t-35.5 61.5t0 72q-75 -166 -160 -166q-37 0 -59.5 34t-22.5 91q0 71 32 140.5t95 117.5t139 48q44 0 79 -14l38 14h7l-62 -236
q-22 -70 -14 -120t60 -50q72 0 119 83.5t47 192.5q0 137 -80.5 212.5t-217.5 75.5q-119 0 -209.5 -60t-136 -154.5t-45.5 -205.5q0 -157 92.5 -247t242.5 -90q130 0 214 60l9 -16q-91 -64 -227 -64zM366 95q58 0 132 190l34 130q-9 24 -41 24q-44 0 -82 -46.5t-58 -109.5
t-20 -119q0 -69 35 -69z" />
    <glyph glyph-name="A" unicode="A" horiz-adv-x="636" 
d="M270 585l-110 -289h219zM133 0h-135v2q33 35 51.5 70.5t43.5 101.5l215 566h20l219 -577q41 -111 91 -161v-2h-199v2q14 19 11.5 65.5t-22.5 100.5l-41 108h-235l-21 -56q-52 -135 2 -218v-2z" />
    <glyph glyph-name="B" unicode="B" horiz-adv-x="623" 
d="M49 0v2q24 46 32 82t8 97v370q0 61 -8 97t-32 82v2q82 0 156 2t106 2q254 0 254 -171q0 -132 -136 -177q91 -15 132.5 -65t41.5 -119q0 -92 -71.5 -148t-219.5 -56h-263zM320 391q48 0 79.5 26.5t43.5 62.5t12 79q0 76 -41.5 116.5t-119.5 40.5q-57 0 -90 -10v-315h116z
M298 20q90 0 137 48t47 131q0 78 -39 125t-114 47h-125v-339q41 -12 94 -12z" />
    <glyph glyph-name="C" unicode="C" horiz-adv-x="752" 
d="M685 57q-22 -18 -104.5 -45t-170.5 -27q-170 0 -275 109t-105 272q0 161 113 271t286 110q131 0 252 -48l20 -164l-8 -3q-78 110 -135.5 152.5t-141.5 42.5q-132 0 -195.5 -98t-63.5 -263q0 -164 63 -262.5t190 -98.5q99 0 164 60t123 178l8 -3z" />
    <glyph glyph-name="D" unicode="D" horiz-adv-x="753" 
d="M49 2q24 40 32 70t8 82v424q0 52 -8 82t-32 70v2q62 0 134.5 2t139.5 2q188 0 294 -95.5t106 -271.5q0 -179 -103.5 -274t-296.5 -95h-274v2zM204 716v-699l111 3q150 4 215.5 86t65.5 249q0 185 -69 273t-213 88h-110z" />
    <glyph glyph-name="E" unicode="E" horiz-adv-x="620" 
d="M561 0h-512v2q39 90 39 167v394q0 47 -9 82t-30 85v2h462l39 -178l-8 -3q-10 10 -53 60t-69.5 74t-46.5 25l-169 7v-338h86q17 0 36 12t31 25t30.5 36.5t26.5 31.5h9v-226h-9q-5 5 -25.5 29t-31.5 36t-30.5 24t-36.5 12h-86v-344l178 7q38 1 81 32.5t70.5 64t63.5 82.5
l8 -3z" />
    <glyph glyph-name="F" unicode="F" horiz-adv-x="590" 
d="M244 0h-195v2q24 46 32 82t8 97v370q0 61 -8 97t-32 82v2h492l39 -178l-9 -2q-15 15 -53.5 61t-67 72t-48.5 26l-198 7v-330h106q17 0 36 12t31 25t30.5 36.5t26.5 31.5h9v-226h-9q-5 5 -25.5 29t-31.5 36t-30.5 24t-36.5 12h-106v-187q0 -63 7.5 -98t32.5 -81v-2z" />
    <glyph glyph-name="G" unicode="G" horiz-adv-x="783" 
d="M713 91q-4 -3 -27 -18.5t-36 -23.5t-41 -22.5t-53 -22t-61.5 -13.5t-75.5 -6q-174 0 -281.5 109t-107.5 272q0 164 110.5 272.5t295.5 108.5q112 0 256 -48l20 -163l-9 -3q-72 105 -134.5 149.5t-141.5 44.5q-132 0 -201 -100.5t-69 -261.5q0 -105 26 -183.5t86 -127.5
t150 -49q84 0 134 41t50 118q0 53 -9.5 87t-36.5 79v2h196v-2q-25 -46 -32.5 -81t-7.5 -98v-60z" />
    <glyph glyph-name="H" unicode="H" horiz-adv-x="757" 
d="M49 2q24 46 32 82t8 97v370q0 61 -8 97t-32 82v2h195v-2q-25 -46 -32.5 -81t-7.5 -98v-164h349v164q0 63 -7.5 98t-32.5 81v2h195v-2q-25 -46 -32.5 -81t-7.5 -98v-370q0 -63 7.5 -98t32.5 -81v-2h-195v2q25 46 32.5 81t7.5 98v186h-349v-186q0 -63 7.5 -98t32.5 -81v-2
h-195v2z" />
    <glyph glyph-name="I" unicode="I" horiz-adv-x="293" 
d="M49 2q25 46 32.5 81t7.5 98v370q0 63 -7.5 98t-32.5 81v2h195v-2q-25 -46 -32.5 -81t-7.5 -98v-370q0 -63 7.5 -98t32.5 -81v-2h-195v2z" />
    <glyph glyph-name="J" unicode="J" horiz-adv-x="404" 
d="M324 138q0 -74 -44.5 -113.5t-124.5 -39.5q-60 0 -117 22l-18 165l8 3q75 -121 92 -142q24 -28 44 -28q21 0 33.5 20.5t12.5 56.5v469q0 61 -8 97t-32 82v2h194v-2q-25 -46 -32.5 -81t-7.5 -98v-413z" />
    <glyph glyph-name="K" unicode="K" horiz-adv-x="655" 
d="M49 2q24 46 32 82t8 97v370q0 61 -8 97t-32 82v2h195v-2q-25 -46 -32.5 -81t-7.5 -98v-370q0 -63 7.5 -98t32.5 -81v-2h-195v2zM492 0l-272 361l189 218q90 105 56 151v2h158v-2q-60 -31 -98 -63.5t-84 -85.5l-130 -148l232 -308q61 -81 122 -123l1 -2h-174z" />
    <glyph glyph-name="L" unicode="L" horiz-adv-x="589" 
d="M49 0v2q24 46 32 82t8 97v370q0 61 -8 97t-32 82v2h195v-2q-25 -46 -32.5 -81t-7.5 -98v-537l151 6q100 4 216 181l8 -3l-44 -198h-486z" />
    <glyph glyph-name="M" unicode="M" horiz-adv-x="899" 
d="M26 0v2q38 53 50.5 91.5t12.5 105.5v393q-4 48 -18.5 76t-52.5 62v2h182l257 -569l247 569h177v-2q-43 -39 -57 -71t-14 -96v-382q0 -63 7.5 -98t32.5 -81v-2h-195v2q24 46 32 82t8 97v473l-275 -632h-21l-290 636l3 -459q0 -67 14.5 -106.5t57.5 -90.5v-2h-158z" />
    <glyph glyph-name="N" unicode="N" horiz-adv-x="694" 
d="M109 627l4 -428q0 -67 13.5 -105.5t55.5 -91.5v-2h-154v2q37 51 49 90.5t12 106.5v392q-4 49 -20 77t-58 62v2h160l419 -569l-3 370q0 66 -12.5 105.5t-48.5 91.5v2h144v-2q-37 -53 -49 -92t-12 -105v-533l-36 -3z" />
    <glyph glyph-name="O" unicode="O" horiz-adv-x="814" 
d="M406 -15q-145 0 -260.5 112.5t-115.5 267.5t115.5 268.5t260.5 113.5q94 0 181 -50.5t142 -139.5t55 -192t-55 -191.5t-142 -138.5t-181 -50zM406 5q125 0 188 98t63 262q0 163 -63.5 262.5t-187.5 99.5t-186.5 -99.5t-62.5 -262.5q0 -162 62.5 -261t186.5 -99z" />
    <glyph glyph-name="P" unicode="P" horiz-adv-x="578" 
d="M49 2q24 46 32 82t8 97v370q0 61 -8 97t-32 82v2h236q153 0 218 -56t65 -146q0 -103 -77.5 -166.5t-220.5 -63.5h-66v-119q0 -63 7.5 -98t32.5 -81v-2h-195v2zM268 712h-26q-6 0 -38 -2v-390h62q93 0 139.5 60t46.5 148q0 184 -184 184z" />
    <glyph glyph-name="Q" unicode="Q" horiz-adv-x="814" 
d="M506 -56q139 -38 325 2l-44 -93q-35 -23 -108 -23q-62 0 -115.5 18t-89.5 46.5t-55.5 49.5t-33.5 42q-61 3 -118 28q-103 45 -170 140t-67 211q0 155 115.5 268.5t260.5 113.5q94 0 181 -50.5t142 -139.5t55 -192q0 -116 -68 -210.5t-172 -140.5q-64 -27 -133 -29
q44 -27 95 -41zM406 5q125 0 188 98t63 262q0 163 -63.5 262.5t-187.5 99.5t-186.5 -99.5t-62.5 -262.5q0 -162 62.5 -261t186.5 -99z" />
    <glyph glyph-name="R" unicode="R" horiz-adv-x="646" 
d="M49 2q24 46 32 82t8 97v370q0 61 -8 97t-32 82v2h255q253 0 253 -175q0 -65 -36 -113.5t-109 -71.5l119 -233q31 -62 53.5 -87t62.5 -45v-7h-176l-180 353h-87v-172q0 -63 7.5 -98t32.5 -81v-2h-195v2zM282 712h-30q-29 0 -48 -1v-338h78q158 0 158 185q0 74 -35.5 114
t-122.5 40z" />
    <glyph glyph-name="S" unicode="S" horiz-adv-x="553" 
d="M474 537l-9 -3q-50 106 -100 149.5t-107 43.5q-51 0 -80 -30.5t-29 -81.5q0 -27 10.5 -51t23.5 -40t40.5 -34t45 -27t53.5 -26q38 -19 60 -30.5t52.5 -34t47 -44.5t29 -56t12.5 -74q0 -106 -74 -159.5t-188 -53.5q-101 0 -206 39l-20 185l8 3q57 -107 117 -157t129 -50
q65 0 100 39.5t35 97.5q0 65 -40.5 106t-114.5 77q-31 15 -45 22t-41 23t-40.5 27t-32.5 29.5t-27.5 36t-15.5 42t-7 51.5q0 97 66 144t165 47q83 0 163 -29z" />
    <glyph glyph-name="T" unicode="T" horiz-adv-x="715" 
d="M455 0h-195v2q24 46 32 82t8 97v534l-109 -4q-19 -1 -48.5 -31t-52.5 -61t-55 -77q-9 -13 -13 -19l-8 3l38 206h611l38 -206l-8 -3q-10 13 -33 46t-37.5 52t-34 42.5t-35.5 35t-29 12.5l-109 4v-534q0 -63 7.5 -98t32.5 -81v-2z" />
    <glyph glyph-name="U" unicode="U" horiz-adv-x="696" 
d="M358 -15q-120 0 -196.5 62.5t-76.5 190.5v313q0 63 -7.5 98t-32.5 81v2h195v-2q-40 -76 -40 -179v-310q0 -231 186 -231q104 0 153 68t49 172v283q0 68 -14 107t-58 90v2h162l5 -2q-44 -51 -58 -90t-14 -107v-282q0 -119 -59.5 -192.5t-193.5 -73.5z" />
    <glyph glyph-name="V" unicode="V" horiz-adv-x="640" 
d="M309 -8l-221 577q-40 108 -90 161v2h208v-2q-16 -24 -16.5 -67t18.5 -99l158 -419l141 370q52 140 2 215v2h133v-2q-58 -64 -95 -170l-218 -568h-20z" />
    <glyph glyph-name="W" unicode="W" horiz-adv-x="995" 
d="M276 -8l-188 577q-35 107 -85 161v2h209v-2q-36 -59 -2 -166l129 -405l155 389l-8 21q-41 114 -85 161v2h209v-2q-15 -26 -17.5 -65.5t15.5 -100.5l140 -397l114 348q46 142 -2 215v2h132v-2q-61 -63 -98 -182l-181 -556h-20l-189 527l-208 -527h-20z" />
    <glyph glyph-name="X" unicode="X" horiz-adv-x="694" 
d="M178 0h-170v2q76 52 147 155l142 204l-140 233q-32 53 -58.5 84.5t-60.5 51.5v2h233v-2q-15 -15 -10.5 -53.5t27.5 -76.5l93 -154l74 106q41 58 47 100t-16 78v2h170v-2q-87 -56 -157 -155l-106 -149l174 -287q61 -102 119 -137v-2h-233v2q15 15 10.5 53.5t-27.5 76.5
l-126 209l-111 -161q-27 -39 -34.5 -74t-3.5 -52.5t17 -51.5v-2z" />
    <glyph glyph-name="Y" unicode="Y" horiz-adv-x="601" 
d="M202 2q24 38 32 68t8 81v182l-145 259q-57 100 -110 138v2h227v-2q-20 -17 -18 -52.5t23 -73.5l131 -241l99 173q63 112 16 194v2h149v-2q-39 -37 -64 -71t-64 -101l-129 -224v-183q0 -52 7.5 -81t32.5 -68v-2h-195v2z" />
    <glyph glyph-name="Z" unicode="Z" horiz-adv-x="623" 
d="M20 0v11l439 705l-130 -4q-53 -2 -97.5 -17.5t-78 -43t-56 -53t-46.5 -61.5l-8 3l47 192h504v-11l-438 -706l160 5q70 2 127.5 32.5t91 67.5t65.5 91l8 -3l-49 -208h-539z" />
    <glyph glyph-name="bracketleft" unicode="[" horiz-adv-x="369" 
d="M90 755h244v-20h-154v-845h154v-20h-244v885z" />
    <glyph glyph-name="backslash" unicode="\" horiz-adv-x="392" 
d="M389 -130l-380 911h28l380 -911h-28z" />
    <glyph glyph-name="bracketright" unicode="]" horiz-adv-x="369" 
d="M279 -130h-244v20h154v845h-154v20h244v-885z" />
    <glyph glyph-name="asciicircum" unicode="^" horiz-adv-x="412" 
d="M206 652l-167 -180l-9 10l173 273h6l173 -273l-9 -10z" />
    <glyph glyph-name="underscore" unicode="_" horiz-adv-x="496" 
d="M33 -100v20h430v-20h-430z" />
    <glyph glyph-name="grave" unicode="`" 
d="M215 532l-201 146l76 71l133 -209z" />
    <glyph glyph-name="a" unicode="a" horiz-adv-x="472" 
d="M195 39q51 0 82 29v152q-155 -35 -155 -117q0 -30 19 -47t54 -17zM362 -12q-70 0 -83 63q-58 -66 -144 -66q-47 0 -77 22t-30 63q0 47 42 84t94.5 55.5t112.5 27.5v109q0 42 -21 64t-71 22q-78 0 -133 -45l-5 6q69 99 199 99q69 0 100 -33.5t31 -85.5v-285q0 -44 39 -44
q25 0 49 19l2 -2q-37 -73 -105 -73z" />
    <glyph glyph-name="b" unicode="b" horiz-adv-x="552" 
d="M275 -15q-96 0 -161 50l-50 -45h-4v604q0 79 -45 130v2l145 52v-370h2q74 84 168 84q88 0 140 -69t52 -179q0 -113 -64 -186t-183 -73zM285 3q60 0 96 60t36 162q0 103 -39 152.5t-108 49.5q-63 0 -110 -41v-201q0 -94 38.5 -138t86.5 -44z" />
    <glyph glyph-name="c" unicode="c" horiz-adv-x="465" 
d="M436 112q-45 -127 -187 -127q-102 0 -163 67t-61 178t76 186.5t177 75.5q78 0 132 -26l13 -111l-9 -2q-24 42 -68.5 81.5t-82.5 39.5q-64 0 -102 -54.5t-38 -147.5q0 -97 47 -149.5t127 -52.5q88 0 133 46z" />
    <glyph glyph-name="d" unicode="d" horiz-adv-x="567" 
d="M274 52q72 0 118 54v257q-25 111 -114 111q-65 0 -104 -62t-39 -161q0 -92 35.5 -145.5t103.5 -53.5zM393 86q-24 -43 -68.5 -72t-102.5 -29q-87 0 -139.5 65.5t-52.5 166.5q0 116 69 195.5t192 79.5q55 0 101 -18v119q0 79 -45 130v2l145 53v-565q0 -97 9.5 -132.5
t36.5 -58.5v-2l-142 -32v98h-3z" />
    <glyph glyph-name="e" unicode="e" horiz-adv-x="473" 
d="M448 133q-21 -66 -72 -107t-126 -41q-99 0 -162 69.5t-63 175.5q0 114 71.5 188t159.5 74q84 0 139.5 -62.5t51.5 -132.5h-321v-19q0 -103 47 -155.5t128 -52.5q86 0 141 67zM252 474q-55 0 -86.5 -44.5t-37.5 -116.5l217 5v11q0 145 -93 145z" />
    <glyph glyph-name="f" unicode="f" horiz-adv-x="313" 
d="M65 2q24 38 24 137v320h-63v18h63v66q0 107 58.5 171t142.5 64q47 0 77 -14l11 -105l-6 -2q-14 23 -20.5 32t-22.5 30.5t-32.5 31t-32.5 9.5q-32 0 -53.5 -46t-21.5 -127v-110h118v-18h-118v-320q0 -96 23 -137v-2h-147v2z" />
    <glyph glyph-name="g" unicode="g" horiz-adv-x="520" 
d="M236 169q90 0 90 152q0 153 -91 153q-89 0 -89 -153q0 -152 90 -152zM492 -66q-2 -68 -72 -113.5t-193 -45.5q-97 0 -158 30.5t-61 83.5q0 67 95 93q-57 21 -57 78q0 43 30.5 70.5t74.5 38.5q-48 21 -76.5 61.5t-28.5 90.5q0 72 55 121.5t134 49.5q78 0 134 -50l127 74
l2 -1v-89h-4l-111 2q43 -46 43 -107q0 -70 -55.5 -120t-134.5 -50q-35 0 -72 13q-44 -21 -44 -55q0 -26 24.5 -36.5t75.5 -12.5l100 -3q76 -2 125 -33.5t47 -89.5zM268 -190q81 0 124 23.5t43 61.5q0 61 -122 66l-108 4q-52 2 -87 12q-25 -23 -25 -61q0 -51 45 -78.5
t130 -27.5z" />
    <glyph glyph-name="h" unicode="h" horiz-adv-x="542" 
d="M48 0v2q22 67 22 192v400q0 79 -45 130v2l145 52v-378q76 92 161 92q68 0 105 -38.5t37 -106.5v-153q0 -76 3.5 -115t18.5 -77v-2h-145v2q23 68 23 192v130q0 46 -23 76.5t-69 30.5q-62 0 -111 -51v-186q0 -132 23 -192v-2h-145z" />
    <glyph glyph-name="i" unicode="i" horiz-adv-x="242" 
d="M179 658q0 -25 -17.5 -42.5t-42.5 -17.5t-42.5 17.5t-17.5 42.5t17.5 43t42.5 18t42.5 -18t17.5 -43zM51 2q23 97 23 192v114q0 78 -45 129v7l145 53v-302q0 -74 4 -114.5t18 -78.5v-2h-145v2z" />
    <glyph glyph-name="j" unicode="j" horiz-adv-x="245" 
d="M179 658q0 -25 -17.5 -42.5t-42.5 -17.5t-42.5 17.5t-17.5 42.5t17.5 43t42.5 18t42.5 -18t17.5 -43zM9 -209q65 40 65 141v376q0 78 -45 129v7l145 53l-2 -495q0 -97 -45.5 -152.5t-115.5 -64.5z" />
    <glyph glyph-name="k" unicode="k" horiz-adv-x="479" 
d="M48 2q22 47 22 137v455q0 78 -45 129v2l145 53v-638q0 -95 24 -138v-2h-146v2zM350 0l-172 248l115 125q24 26 32 54.5t-4 47.5v2h130v-2q-65 -29 -144 -114l-52 -57l147 -212q19 -26 29.5 -39.5t25.5 -27.5t32 -23v-2h-139z" />
    <glyph glyph-name="l" unicode="l" horiz-adv-x="238" 
d="M47 2q22 47 22 137v455q0 78 -45 129v2l145 53v-638q0 -97 23 -138v-2h-145v2z" />
    <glyph glyph-name="m" unicode="m" horiz-adv-x="791" 
d="M196 0h-145v2q23 68 23 192v118q0 79 -45 130v2l141 53v-96l4 -1q62 92 153 92q105 0 118 -91l3 -1q63 92 154 92q121 0 121 -133v-164q0 -77 3.5 -116t18.5 -77v-2h-144v2q22 71 22 192v142q0 95 -74 95q-65 0 -101 -54v-182q0 -75 4 -114.5t19 -78.5v-2h-145v2
q22 64 22 192v142q0 95 -74 95q-64 0 -100 -54v-182q0 -133 22 -193v-2z" />
    <glyph glyph-name="n" unicode="n" horiz-adv-x="545" 
d="M196 0h-145v2q23 68 23 192v118q0 79 -45 130v2l141 53v-96l4 -1q76 92 161 92q68 0 104.5 -38.5t36.5 -106.5v-152q0 -75 4 -114.5t19 -78.5v-2h-145v2q22 71 22 192v130q0 47 -22.5 77t-69.5 30q-63 0 -110 -50v-186q0 -133 22 -193v-2z" />
    <glyph glyph-name="o" unicode="o" horiz-adv-x="563" 
d="M281 -15q-105 0 -180.5 75.5t-75.5 177.5q0 101 76.5 177.5t179.5 76.5q104 0 180.5 -76.5t76.5 -177.5q0 -102 -76 -177.5t-181 -75.5zM281 5q73 0 110 67t37 166q0 98 -37.5 166t-109.5 68q-71 0 -108.5 -68t-37.5 -166q0 -99 36.5 -166t109.5 -67z" />
    <glyph glyph-name="p" unicode="p" horiz-adv-x="566" 
d="M299 3q60 0 96 60t36 162q0 103 -39 152.5t-107 49.5q-64 0 -111 -41v-201q0 -95 38 -138.5t87 -43.5zM51 -225v2q23 68 23 192v343q0 79 -45 130v2l141 53v-88l6 -1q74 84 170 84q85 0 137.5 -69.5t52.5 -178.5q0 -113 -64 -186t-183 -73q-67 0 -115 23v-38
q0 -132 22 -193v-2h-145z" />
    <glyph glyph-name="q" unicode="q" horiz-adv-x="560" 
d="M369 -223q23 68 23 192v115q-24 -42 -68 -70.5t-102 -28.5q-87 0 -139.5 65.5t-52.5 166.5q0 116 69 195.5t192 79.5q106 0 153 -51l44 46h4v-517q0 -132 22 -193v-2h-145v2zM274 52q72 0 118 54v252q-11 62 -42.5 89t-71.5 27q-65 0 -104 -62t-39 -161
q0 -92 35.5 -145.5t103.5 -53.5z" />
    <glyph glyph-name="r" unicode="r" horiz-adv-x="356" 
d="M51 0v2q23 68 23 192v118q0 79 -45 130v2l141 53v-122h4q32 38 47 55t48.5 39.5t63.5 22.5l-2 -122h-4q-13 11 -42.5 20.5t-46.5 9.5q-31 0 -64 -45v-160q0 -133 22 -193v-2h-145z" />
    <glyph glyph-name="s" unicode="s" horiz-adv-x="399" 
d="M346 363l-6 -2q-66 113 -155 113q-38 0 -60 -21t-22 -53q0 -27 21 -48.5t43 -32t65 -27.5q66 -28 104 -63.5t38 -99.5q0 -71 -52 -107.5t-135 -36.5q-72 0 -147 26l-10 128l6 2q38 -73 77 -105.5t87 -32.5q46 0 69 25.5t23 60.5q0 36 -25 58.5t-81 46.5q-28 12 -35.5 16
t-32 16.5t-33.5 22.5t-23 26.5t-19 36.5t-5 44q0 70 50 103t124 33q75 0 124 -20z" />
    <glyph glyph-name="t" unicode="t" horiz-adv-x="326" 
d="M184 -15q-112 0 -112 121v353h-54v6l145 125h10v-113h129v-18h-129v-350q0 -74 70 -74q38 0 66 17l3 -4q-45 -63 -128 -63z" />
    <glyph glyph-name="u" unicode="u" horiz-adv-x="524" 
d="M349 112q-32 -59 -68.5 -93t-92.5 -34q-63 0 -96 45.5t-33 124.5v213q0 68 -42 107v2h142v-306q0 -106 88 -106q64 0 97 63v240q0 71 -44 107v2h144v-307q0 -75 9.5 -101.5t35.5 -46.5v-2l-140 -32v124z" />
    <glyph glyph-name="v" unicode="v" horiz-adv-x="447" 
d="M68 359q-35 84 -63 116v2h171v-2q-25 -43 0 -109l88 -232l78 204q29 78 -7 137v2h107v-2q-26 -28 -41 -53t-33 -70l-140 -362h-16z" />
    <glyph glyph-name="w" unicode="w" horiz-adv-x="668" 
d="M65 359q-27 83 -60 116v2h171v-2q-24 -42 -2 -109l71 -217l74 204l-2 6q-27 78 -63 116v2h170v-2q-24 -42 0 -109l72 -217l69 189q29 81 -6 137v2h104v-2q-47 -51 -73 -123l-130 -362h-16l-116 337l-121 -337h-16z" />
    <glyph glyph-name="x" unicode="x" horiz-adv-x="472" 
d="M118 0h-114v2q32 24 54 49t60 74l72 97l-86 137q-54 86 -91 116v2h179v-2q-28 -23 15 -92l67 -106l43 61q55 77 26 137v2h114v-2q-53 -43 -110 -123l-64 -90l91 -145q42 -67 94 -115v-2h-178v2q10 14 9 29t-6 24.5t-23 39.5l-71 112l-51 -68q-56 -74 -30 -137v-2z" />
    <glyph glyph-name="y" unicode="y" horiz-adv-x="449" 
d="M39 -129q130 0 168 105l1 4l-142 378q-29 79 -61 117v2h168v-2q-27 -46 4 -128l84 -225l85 227q12 45 6.5 75t-21.5 51v2h113v-2q-48 -51 -74 -123l-155 -401q-38 -96 -78 -132.5t-96 -43.5z" />
    <glyph glyph-name="z" unicode="z" horiz-adv-x="447" 
d="M15 0v7l282 453l-120 -4q-8 0 -16.5 -2t-17.5 -6.5t-16 -8.5t-17 -12.5t-15.5 -13t-16.5 -15.5t-15 -14.5t-15 -15.5t-13 -14l-5 2l33 121h353v-8l-280 -452l131 3q41 2 77 31t78 81l5 -2l-35 -130h-377z" />
    <glyph glyph-name="braceleft" unicode="{" horiz-adv-x="343" 
d="M293 -130q-202 0 -202 128q0 36 32 109t32 108q0 87 -113 87h-22v21h22q113 0 113 87q0 36 -32 109t-32 108q0 128 202 128h15v-20h-15q-58 0 -82 -18.5t-24 -80.5q0 -27 15.5 -94t15.5 -102q0 -65 -36 -91t-110 -35v-3q77 -11 111.5 -35t34.5 -91q0 -35 -15.5 -102
t-15.5 -94q0 -62 24 -80.5t82 -18.5h15v-20h-15z" />
    <glyph glyph-name="bar" unicode="|" horiz-adv-x="205" 
d="M90 -130v911h25v-911h-25z" />
    <glyph glyph-name="braceright" unicode="}" horiz-adv-x="343" 
d="M35 -130v20h15q58 0 82 18.5t24 80.5q0 27 -15.5 94t-15.5 102q0 67 34.5 91t111.5 35v3q-74 9 -110 35t-36 91q0 35 15.5 102t15.5 94q0 62 -24 80.5t-82 18.5h-15v20h15q202 0 202 -128q0 -35 -32 -108t-32 -109q0 -87 113 -87h22v-21h-22q-113 0 -113 -87
q0 -35 32 -108t32 -109q0 -128 -202 -128h-15z" />
    <glyph glyph-name="asciitilde" unicode="~" horiz-adv-x="452" 
d="M134 330q17 0 92.5 -21.5t112.5 -21.5q29 0 44 12.5t24 39.5l10 -1q-3 -43 -25 -79.5t-71 -36.5q-25 0 -102 21.5t-104 21.5q-53 0 -67 -54l-11 1q3 43 26 80.5t71 37.5z" />
    <glyph glyph-name="uni00A0" unicode="&#xa0;" horiz-adv-x="170" 
 />
    <glyph glyph-name="exclamdown" unicode="&#xa1;" horiz-adv-x="234" 
d="M171 -245h-107v2l45 506h16l46 -506v-2zM117 492q28 0 47.5 -20t19.5 -47q0 -29 -19.5 -49t-47.5 -20q-29 0 -48 20t-19 49q0 28 19 47.5t48 19.5z" />
    <glyph glyph-name="cent" unicode="&#xa2;" horiz-adv-x="465" 
d="M436 112q-20 -58 -66 -92q-40 -31 -105 -34v-100h-25v99q-45 1 -84 17q-62 27 -96.5 86t-34.5 142t44.5 147.5t113.5 94.5q30 13 57 17v68h25v-65h13q78 0 132 -26l13 -111l-9 -2q-16 29 -46.5 60.5t-61.5 48.5q-21 10 -41 12v-402q20 -2 32 -2q88 0 133 46zM161 419
q-38 -55 -38 -147q0 -98 47 -151q27 -30 70 -44v395q-47 -7 -79 -53z" />
    <glyph glyph-name="sterling" unicode="&#xa3;" horiz-adv-x="569" 
d="M500 0h-500v8q43 29 63 47t41 56.5t31.5 97.5t17.5 158h-78l6 20h74q0 3 0.5 8t0.5 7l5 70q5 69 28.5 123.5t57.5 86.5t71.5 48.5t74.5 16.5q33 0 65 -10.5t46 -23.5l18 -176l-9 -3q-59 123 -83 154q-28 39 -54 39q-64 0 -93 -237l-4 -32q-3 -25 -11 -71h140l-6 -20h-139
q-40 -185 -140 -272h278q58 0 93 20.5t67 66.5l8 -3z" />
    <glyph glyph-name="yen" unicode="&#xa5;" horiz-adv-x="551" 
d="M172 2q24 38 32 68t8 81v40h-168v20h168v110h-168v20h167l-124 251q-51 98 -100 138v2h207v-2q-19 -18 -17 -52t22 -74l118 -240l86 172q57 114 10 194v2h151v-2q-46 -44 -72.5 -78t-55.5 -94l-109 -217h168v-20h-168v-110h168v-20h-168v-40q0 -52 7.5 -81t32.5 -68v-2
h-195v2z" />
    <glyph glyph-name="brokenbar" unicode="&#xa6;" horiz-adv-x="205" 
d="M90 365v416h25v-416h-25zM90 -130v415h25v-415h-25z" />
    <glyph glyph-name="section" unicode="&#xa7;" horiz-adv-x="491" 
d="M246 -164q-68 0 -149 26l-10 128l6 2q38 -72 75.5 -105t79.5 -33q41 0 66.5 26.5t25.5 66.5q0 27 -11 49t-35 41.5t-43.5 31.5t-55.5 31q-37 20 -58.5 34.5t-47 37.5t-37.5 51t-12 63q0 58 34 99.5t98 55.5q-90 62 -90 149q0 67 48 112t136 45q71 0 120 -20l10 -109
l-6 -2q-66 113 -145 113q-44 0 -70 -29t-26 -73q0 -28 11 -51t35 -43t44 -32t57 -31q36 -20 58 -34.5t47.5 -37.5t37.5 -51.5t12 -62.5q0 -57 -33.5 -98.5t-96.5 -55.5q87 -60 87 -145q0 -66 -42 -107.5t-120 -41.5zM301 143q40 5 62.5 33t22.5 68q0 27 -10.5 49t-35 42
t-42 31t-54.5 31l-52 30q-41 -4 -64 -32.5t-23 -68.5q0 -27 10.5 -49t35 -42t42 -31t54.5 -31z" />
    <glyph glyph-name="dieresis" unicode="&#xa8;" 
d="M310 658q0 -25 -17.5 -42.5t-42.5 -17.5t-42.5 17.5t-17.5 42.5t17.5 43t42.5 18t42.5 -18t17.5 -43zM110 658q0 -25 -17.5 -42.5t-42.5 -17.5t-42.5 17.5t-17.5 42.5t17.5 43t42.5 18t42.5 -18t17.5 -43z" />
    <glyph glyph-name="copyright" unicode="&#xa9;" horiz-adv-x="823" 
d="M30 366q0 159 111 269.5t270 110.5t270.5 -110.5t111.5 -269.5t-111.5 -270t-270.5 -111t-270 111t-111 270zM57 366q0 -149 103 -254t251 -105q146 0 250 105t104 254t-103.5 253.5t-250.5 104.5q-148 0 -251 -104.5t-103 -253.5zM569 196q-14 -10 -58.5 -24.5
t-92.5 -14.5q-99 0 -159.5 59.5t-60.5 149.5q0 88 65 149t166 61q62 0 138 -27l11 -101l-6 -2q-42 63 -73.5 88t-77.5 25q-72 0 -107 -52.5t-35 -140.5t34.5 -140.5t104.5 -52.5q54 0 88 33.5t68 103.5l6 -3z" />
    <glyph glyph-name="ordfeminine" unicode="&#xaa;" horiz-adv-x="388" 
d="M166 399q36 0 57 19v119q-49 -11 -80.5 -33t-31.5 -55q0 -23 14.5 -36.5t40.5 -13.5zM293 354q-29 0 -46.5 15t-20.5 37q-46 -55 -112 -55q-37 0 -60.5 17.5t-23.5 50.5q0 96 193 133v76q0 34 -15.5 50.5t-55.5 16.5q-57 0 -104 -32l-4 5q61 79 161 79q55 0 80.5 -26.5
t25.5 -68.5v-213q0 -38 32 -38q19 0 33 14l1 -1q-25 -60 -84 -60z" />
    <glyph glyph-name="guillemotleft" unicode="&#xab;" horiz-adv-x="431" 
d="M363 52l-153 175v20l153 175l8 -6l-91 -179l91 -179zM213 52l-153 175v20l153 175l8 -6l-91 -179l91 -179z" />
    <glyph glyph-name="registered" unicode="&#xae;" horiz-adv-x="440" 
d="M10 541q0 86 62 146t150 60q87 0 147.5 -59.5t60.5 -146.5q0 -86 -62 -145.5t-149 -59.5q-88 0 -148.5 59t-60.5 146zM35 541q0 -78 53.5 -131t131.5 -53t131.5 53t53.5 131q0 79 -53.5 132t-131.5 53q-79 0 -132 -53t-53 -132zM135 433q12 25 12 55v110q0 28 -12 53v2
h98q75 0 75 -54q0 -43 -45 -59l37 -67q16 -31 36 -40v-1h-66l-53 103h-25v-47q0 -34 12 -55v-1h-69v1zM225 640h-13q-12 0 -20 -1v-91h33q38 0 38 49q0 43 -38 43z" />
    <glyph glyph-name="macron" unicode="&#xaf;" 
d="M8 645h283v-50h-283v50z" />
    <glyph glyph-name="degree" unicode="&#xb0;" horiz-adv-x="298" 
d="M16 615q0 54 39.5 93t95.5 39t93 -38.5t37 -93.5t-39.5 -94t-94.5 -39q-56 0 -93.5 38.5t-37.5 94.5zM42 615q0 -48 29.5 -79.5t77.5 -31.5q47 0 76.5 31.5t29.5 79.5t-29.5 79t-76.5 31q-48 0 -77.5 -31t-29.5 -79z" />
    <glyph glyph-name="acute" unicode="&#xb4;" 
d="M204 749l73 -71l-198 -136l-8 8z" />
    <glyph glyph-name="paragraph" unicode="&#xb6;" horiz-adv-x="478" 
d="M357 0v1q15 61 15 132v466q0 80 -15 132v1h61v-1q-15 -51 -15 -132v-466q0 -79 15 -132v-1h-61zM247 0v1q15 61 15 132v233h-58q-76 0 -130 54t-54 130q0 75 54 128.5t130 53.5h104v-1q-15 -51 -15 -132v-466q0 -79 15 -132v-1h-61z" />
    <glyph glyph-name="periodcentered" unicode="&#xb7;" horiz-adv-x="264" 
d="M132 205q-28 0 -47.5 20t-19.5 47q0 29 19.5 48.5t47.5 19.5q27 0 47 -19.5t20 -48.5q0 -27 -20 -47t-47 -20z" />
    <glyph glyph-name="cedilla" unicode="&#xb8;" 
d="M74 -246q82 35 82 83q0 8 -2.5 14.5t-6 11t-10 8.5t-10.5 6t-12.5 4t-12 2.5t-12 1.5t-9.5 1l-2 2l70 114h28l-40 -62q88 -19 88 -83q0 -81 -148 -112z" />
    <glyph glyph-name="ordmasculine" unicode="&#xba;" horiz-adv-x="464" 
d="M232 351q-82 0 -142 59t-60 139q0 79 60.5 138.5t141.5 59.5q83 0 142.5 -59.5t59.5 -138.5q0 -81 -59.5 -139.5t-142.5 -58.5zM232 365q55 0 83 52.5t28 131.5q0 77 -28.5 130.5t-82.5 53.5t-82 -53.5t-28 -130.5q0 -79 28 -131.5t82 -52.5z" />
    <glyph glyph-name="guillemotright" unicode="&#xbb;" horiz-adv-x="431" 
d="M210 58l91 179l-91 179l8 6l153 -175v-20l-153 -175zM60 58l91 179l-91 179l8 6l153 -175v-20l-153 -175z" />
    <glyph glyph-name="onequarter" unicode="&#xbc;" horiz-adv-x="638" 
d="M43 354v1q17 20 22 36t5 45v221h-47v6q80 36 128 84h6v-311q0 -29 5 -45t21 -36v-1h-140zM48 15l520 728l18 -12l-521 -730zM454 1q21 35 21 81v18h-162v6l171 279h102l-250 -268h139v107h89v-107h50l-4 -17h-46v-18q0 -46 21 -81v-1h-131v1z" />
    <glyph glyph-name="onehalf" unicode="&#xbd;" horiz-adv-x="685" 
d="M38 15l520 728l18 -12l-521 -730zM378 0v6q99 93 138.5 156.5t39.5 124.5q0 43 -14.5 67t-40.5 24q-51 0 -100 -100l-5 1l13 97q46 17 95 17q69 0 104 -28.5t35 -75.5q0 -52 -45 -102.5t-143 -118.5h97q56 0 98 51l4 -1l-27 -118h-249zM43 354v1q17 20 22 36t5 45v221
h-47v6q80 36 128 84h6v-311q0 -29 5 -45t21 -36v-1h-140z" />
    <glyph glyph-name="threequarters" unicode="&#xbe;" horiz-adv-x="689" 
d="M142 346q-65 0 -106 23l-13 95l6 1q45 -70 63 -86q21 -18 46 -18q34 0 53 30t19 80q0 103 -76 103q-35 0 -66 -22l-6 7l131 111h-153l20 68h233v-5l-173 -145q15 4 37 4q57 0 99 -31t42 -90q0 -57 -43 -91t-113 -34zM99 15l520 728l18 -12l-521 -730zM505 1q21 35 21 81
v18h-162v6l171 279h102l-250 -268h139v107h89v-107h50l-4 -17h-46v-18q0 -46 21 -81v-1h-131v1z" />
    <glyph glyph-name="questiondown" unicode="&#xbf;" horiz-adv-x="427" 
d="M311 263q-7 -42 -26.5 -77.5t-42 -61.5t-44.5 -55t-36.5 -72.5t-14.5 -99.5q0 -65 26 -102t75 -37q45 0 77 34.5t70 105.5l7 -2l-20 -131q-66 -25 -139 -25q-208 0 -208 162q0 44 16 80.5t40 60.5t54.5 50t59 48t53.5 54t37 68h16zM297 492q29 0 48 -19.5t19 -47.5
q0 -29 -19 -49t-48 -20q-28 0 -47.5 20t-19.5 49q0 27 19.5 47t47.5 20z" />
    <glyph glyph-name="Agrave" unicode="&#xc0;" horiz-adv-x="636" 
d="M270 585l-110 -289h219zM133 0h-135v2q33 35 51.5 70.5t43.5 101.5l215 566h20l219 -577q41 -111 91 -161v-2h-199v2q14 19 11.5 65.5t-22.5 100.5l-41 108h-235l-21 -56q-52 -135 2 -218v-2zM395 782l-245 91l51 86l200 -167z" />
    <glyph glyph-name="Aacute" unicode="&#xc1;" horiz-adv-x="636" 
d="M270 585l-110 -289h219zM133 0h-135v2q33 35 51.5 70.5t43.5 101.5l215 566h20l219 -577q41 -111 91 -161v-2h-199v2q14 19 11.5 65.5t-22.5 100.5l-41 108h-235l-21 -56q-52 -135 2 -218v-2zM415 959l52 -86l-241 -91l-6 10z" />
    <glyph glyph-name="Acircumflex" unicode="&#xc2;" horiz-adv-x="636" 
d="M270 585l-110 -289h219zM133 0h-135v2q33 35 51.5 70.5t43.5 101.5l215 566h20l219 -577q41 -111 91 -161v-2h-199v2q14 19 11.5 65.5t-22.5 100.5l-41 108h-235l-21 -56q-52 -135 2 -218v-2zM318 858l-147 -76l-9 10l153 153h6l153 -153l-9 -10z" />
    <glyph glyph-name="Atilde" unicode="&#xc3;" horiz-adv-x="636" 
d="M270 585l-110 -289h219zM133 0h-135v2q33 35 51.5 70.5t43.5 101.5l215 566h20l219 -577q41 -111 91 -161v-2h-199v2q14 19 11.5 65.5t-22.5 100.5l-41 108h-235l-21 -56q-52 -135 2 -218v-2zM240 905q31 0 85.5 -20t86.5 -20q27 0 41 11t25 43l10 -2q-1 -26 -4.5 -43.5
t-12 -39t-27.5 -32.5t-48 -11q-31 0 -85.5 20t-86.5 20q-27 0 -41 -11t-25 -43l-10 2q1 26 4.5 43.5t12 39t27.5 32.5t48 11z" />
    <glyph glyph-name="Adieresis" unicode="&#xc4;" horiz-adv-x="636" 
d="M270 585l-110 -289h219zM133 0h-135v2q33 35 51.5 70.5t43.5 101.5l215 566h20l219 -577q41 -111 91 -161v-2h-199v2q14 19 11.5 65.5t-22.5 100.5l-41 108h-235l-21 -56q-52 -135 2 -218v-2zM498 868q0 -25 -17.5 -42.5t-42.5 -17.5t-42.5 17.5t-17.5 42.5t17.5 43
t42.5 18t42.5 -18t17.5 -43zM258 868q0 -25 -17.5 -42.5t-42.5 -17.5t-42.5 17.5t-17.5 42.5t17.5 43t42.5 18t42.5 -18t17.5 -43z" />
    <glyph glyph-name="Aring" unicode="&#xc5;" horiz-adv-x="636" 
d="M270 585l-110 -289h219zM133 0h-135v2q33 35 51.5 70.5t43.5 101.5l215 566h20l219 -577q41 -111 91 -161v-2h-199v2q14 19 11.5 65.5t-22.5 100.5l-41 108h-235l-21 -56q-52 -135 2 -218v-2zM228 867q0 38 25.5 62t64.5 24t64.5 -24t25.5 -62t-25.5 -61.5t-64.5 -23.5
t-64.5 23.5t-25.5 61.5zM267 867q0 -31 13.5 -48.5t37.5 -17.5t37.5 17.5t13.5 48.5t-13.5 49.5t-37.5 18.5t-37.5 -18.5t-13.5 -49.5z" />
    <glyph glyph-name="AE" unicode="&#xc6;" horiz-adv-x="1010" 
d="M478 563q0 61 -15 103l-212 -370h227v267zM167 0h-140v2q28 24 51.5 53.5t35.5 49t42 70.5l295 516q-10 19 -32 39v2h482l39 -178l-8 -3q-10 10 -53 60t-69.5 74t-46.5 25l-169 7v-338h86q17 0 36 12t31 25t30.5 36.5t26.5 31.5h9v-226h-9q-5 5 -25.5 29t-31.5 36
t-30.5 24t-36.5 12h-86v-344l178 7q38 1 81 32.5t70.5 64t63.5 82.5l8 -3l-44 -198h-512v2q39 90 39 167v107h-239l-43 -76q-65 -111 -29 -198v-2z" />
    <glyph glyph-name="Ccedilla" unicode="&#xc7;" horiz-adv-x="752" 
d="M314 -246q82 35 82 83q0 8 -2.5 14.5t-6 11t-10 8.5t-10.5 6t-12.5 4t-12 2.5t-12 1.5t-9.5 1l-2 2l60 98q-66 4 -126 28q-104 44 -163.5 137.5t-59.5 214.5q0 161 113 271t286 110q131 0 252 -48l20 -164l-8 -3q-78 110 -135.5 152.5t-141.5 42.5q-132 0 -195.5 -98
t-63.5 -263q0 -164 63 -262.5t190 -98.5q99 0 164 60t123 178l8 -3l-20 -183q-22 -18 -104.5 -45t-170.5 -27h-4l-29 -45q88 -19 88 -83q0 -81 -148 -112z" />
    <glyph glyph-name="Egrave" unicode="&#xc8;" horiz-adv-x="620" 
d="M561 0h-512v2q39 90 39 167v394q0 47 -9 82t-30 85v2h462l39 -178l-8 -3q-10 10 -53 60t-69.5 74t-46.5 25l-169 7v-338h86q17 0 36 12t31 25t30.5 36.5t26.5 31.5h9v-226h-9q-5 5 -25.5 29t-31.5 36t-30.5 24t-36.5 12h-86v-344l178 7q38 1 81 32.5t70.5 64t63.5 82.5
l8 -3zM416 782l-245 91l51 86l200 -167z" />
    <glyph glyph-name="Eacute" unicode="&#xc9;" horiz-adv-x="620" 
d="M561 0h-512v2q39 90 39 167v394q0 47 -9 82t-30 85v2h462l39 -178l-8 -3q-10 10 -53 60t-69.5 74t-46.5 25l-169 7v-338h86q17 0 36 12t31 25t30.5 36.5t26.5 31.5h9v-226h-9q-5 5 -25.5 29t-31.5 36t-30.5 24t-36.5 12h-86v-344l178 7q38 1 81 32.5t70.5 64t63.5 82.5
l8 -3zM416 959l52 -86l-241 -91l-6 10z" />
    <glyph glyph-name="Ecircumflex" unicode="&#xca;" horiz-adv-x="620" 
d="M561 0h-512v2q39 90 39 167v394q0 47 -9 82t-30 85v2h462l39 -178l-8 -3q-10 10 -53 60t-69.5 74t-46.5 25l-169 7v-338h86q17 0 36 12t31 25t30.5 36.5t26.5 31.5h9v-226h-9q-5 5 -25.5 29t-31.5 36t-30.5 24t-36.5 12h-86v-344l178 7q38 1 81 32.5t70.5 64t63.5 82.5
l8 -3zM309 858l-147 -76l-9 10l153 153h6l153 -153l-9 -10z" />
    <glyph glyph-name="Edieresis" unicode="&#xcb;" horiz-adv-x="620" 
d="M561 0h-512v2q39 90 39 167v394q0 47 -9 82t-30 85v2h462l39 -178l-8 -3q-10 10 -53 60t-69.5 74t-46.5 25l-169 7v-338h86q17 0 36 12t31 25t30.5 36.5t26.5 31.5h9v-226h-9q-5 5 -25.5 29t-31.5 36t-30.5 24t-36.5 12h-86v-344l178 7q38 1 81 32.5t70.5 64t63.5 82.5
l8 -3zM489 868q0 -25 -17.5 -42.5t-42.5 -17.5t-42.5 17.5t-17.5 42.5t17.5 43t42.5 18t42.5 -18t17.5 -43zM249 868q0 -25 -17.5 -42.5t-42.5 -17.5t-42.5 17.5t-17.5 42.5t17.5 43t42.5 18t42.5 -18t17.5 -43z" />
    <glyph glyph-name="Igrave" unicode="&#xcc;" horiz-adv-x="293" 
d="M49 2q25 46 32.5 81t7.5 98v370q0 63 -7.5 98t-32.5 81v2h195v-2q-25 -46 -32.5 -81t-7.5 -98v-370q0 -63 7.5 -98t32.5 -81v-2h-195v2zM203 782l-245 91l51 86l200 -167z" />
    <glyph glyph-name="Iacute" unicode="&#xcd;" horiz-adv-x="293" 
d="M49 2q25 46 32.5 81t7.5 98v370q0 63 -7.5 98t-32.5 81v2h195v-2q-25 -46 -32.5 -81t-7.5 -98v-370q0 -63 7.5 -98t32.5 -81v-2h-195v2zM253 959l52 -86l-241 -91l-6 10z" />
    <glyph glyph-name="Icircumflex" unicode="&#xce;" horiz-adv-x="293" 
d="M49 2q25 46 32.5 81t7.5 98v370q0 63 -7.5 98t-32.5 81v2h195v-2q-25 -46 -32.5 -81t-7.5 -98v-370q0 -63 7.5 -98t32.5 -81v-2h-195v2zM146 858l-147 -76l-9 10l153 153h6l153 -153l-9 -10z" />
    <glyph glyph-name="Idieresis" unicode="&#xcf;" horiz-adv-x="293" 
d="M296 868q0 -25 -17.5 -42.5t-42.5 -17.5t-42.5 17.5t-17.5 42.5t17.5 43t42.5 18t42.5 -18t17.5 -43zM116 868q0 -25 -17.5 -42.5t-42.5 -17.5t-42.5 17.5t-17.5 42.5t17.5 43t42.5 18t42.5 -18t17.5 -43zM49 2q25 46 32.5 81t7.5 98v370q0 63 -7.5 98t-32.5 81v2h195v-2
q-25 -46 -32.5 -81t-7.5 -98v-370q0 -63 7.5 -98t32.5 -81v-2h-195v2z" />
    <glyph glyph-name="Eth" unicode="&#xd0;" horiz-adv-x="759" 
d="M5 377h90v201q0 52 -8 82t-32 70v2q62 0 134.5 2t139.5 2q188 0 294 -95.5t106 -271.5q0 -179 -103.5 -274t-296.5 -95h-274v2q24 40 32 70t8 82v203h-90v20zM210 716v-339h166v-20h-166v-340l111 3q150 4 215.5 86t65.5 249q0 185 -69 273t-213 88h-110z" />
    <glyph glyph-name="Ntilde" unicode="&#xd1;" horiz-adv-x="694" 
d="M109 627l4 -428q0 -67 13.5 -105.5t55.5 -91.5v-2h-154v2q37 51 49 90.5t12 106.5v392q-4 49 -20 77t-58 62v2h160l419 -569l-3 370q0 66 -12.5 105.5t-48.5 91.5v2h144v-2q-37 -53 -49 -92t-12 -105v-533l-36 -3zM297 905q31 0 85.5 -20t86.5 -20q27 0 41 11t25 43
l10 -2q-1 -26 -4.5 -43.5t-12 -39t-27.5 -32.5t-48 -11q-31 0 -85.5 20t-86.5 20q-27 0 -41 -11t-25 -43l-10 2q1 26 4.5 43.5t12 39t27.5 32.5t48 11z" />
    <glyph glyph-name="Ograve" unicode="&#xd2;" horiz-adv-x="814" 
d="M406 -15q-145 0 -260.5 112.5t-115.5 267.5t115.5 268.5t260.5 113.5q94 0 181 -50.5t142 -139.5t55 -192t-55 -191.5t-142 -138.5t-181 -50zM406 5q125 0 188 98t63 262q0 163 -63.5 262.5t-187.5 99.5t-186.5 -99.5t-62.5 -262.5q0 -162 62.5 -261t186.5 -99zM484 782
l-245 91l51 86l200 -167z" />
    <glyph glyph-name="Oacute" unicode="&#xd3;" horiz-adv-x="814" 
d="M406 -15q-145 0 -260.5 112.5t-115.5 267.5t115.5 268.5t260.5 113.5q94 0 181 -50.5t142 -139.5t55 -192t-55 -191.5t-142 -138.5t-181 -50zM406 5q125 0 188 98t63 262q0 163 -63.5 262.5t-187.5 99.5t-186.5 -99.5t-62.5 -262.5q0 -162 62.5 -261t186.5 -99zM514 959
l52 -86l-241 -91l-6 10z" />
    <glyph glyph-name="Ocircumflex" unicode="&#xd4;" horiz-adv-x="814" 
d="M406 -15q-145 0 -260.5 112.5t-115.5 267.5t115.5 268.5t260.5 113.5q94 0 181 -50.5t142 -139.5t55 -192t-55 -191.5t-142 -138.5t-181 -50zM406 5q125 0 188 98t63 262q0 163 -63.5 262.5t-187.5 99.5t-186.5 -99.5t-62.5 -262.5q0 -162 62.5 -261t186.5 -99zM407 858
l-147 -76l-9 10l153 153h6l153 -153l-9 -10z" />
    <glyph glyph-name="Otilde" unicode="&#xd5;" horiz-adv-x="814" 
d="M406 -15q-145 0 -260.5 112.5t-115.5 267.5t115.5 268.5t260.5 113.5q94 0 181 -50.5t142 -139.5t55 -192t-55 -191.5t-142 -138.5t-181 -50zM406 5q125 0 188 98t63 262q0 163 -63.5 262.5t-187.5 99.5t-186.5 -99.5t-62.5 -262.5q0 -162 62.5 -261t186.5 -99zM329 905
q31 0 85.5 -20t86.5 -20q27 0 41 11t25 43l10 -2q-1 -26 -4.5 -43.5t-12 -39t-27.5 -32.5t-48 -11q-31 0 -85.5 20t-86.5 20q-27 0 -41 -11t-25 -43l-10 2q1 26 4.5 43.5t12 39t27.5 32.5t48 11z" />
    <glyph glyph-name="Odieresis" unicode="&#xd6;" horiz-adv-x="814" 
d="M406 -15q-145 0 -260.5 112.5t-115.5 267.5t115.5 268.5t260.5 113.5q94 0 181 -50.5t142 -139.5t55 -192t-55 -191.5t-142 -138.5t-181 -50zM406 5q125 0 188 98t63 262q0 163 -63.5 262.5t-187.5 99.5t-186.5 -99.5t-62.5 -262.5q0 -162 62.5 -261t186.5 -99zM587 868
q0 -25 -17.5 -42.5t-42.5 -17.5t-42.5 17.5t-17.5 42.5t17.5 43t42.5 18t42.5 -18t17.5 -43zM347 868q0 -25 -17.5 -42.5t-42.5 -17.5t-42.5 17.5t-17.5 42.5t17.5 43t42.5 18t42.5 -18t17.5 -43z" />
    <glyph glyph-name="multiply" unicode="&#xd7;" horiz-adv-x="472" 
d="M236 290l-169 -169l-17 17l169 169l-169 169l17 17l169 -169l169 169l17 -17l-169 -169l169 -169l-17 -17z" />
    <glyph glyph-name="Oslash" unicode="&#xd8;" horiz-adv-x="814" 
d="M157 365q0 -167 63 -262l358 545q-62 79 -172 79q-124 0 -186.5 -99.5t-62.5 -262.5zM406 5q125 0 188 98t63 262q0 166 -64 263l-358 -545q64 -78 171 -78zM406 -15q-102 0 -196 61l-49 -75h-28l58 88q-73 54 -117 134.5t-44 171.5q0 155 115.5 268.5t260.5 113.5
q103 0 197 -61l50 76h28l-59 -90q74 -55 118 -135t44 -172q0 -103 -55 -191.5t-142 -138.5t-181 -50z" />
    <glyph glyph-name="Ugrave" unicode="&#xd9;" horiz-adv-x="696" 
d="M358 -15q-120 0 -196.5 62.5t-76.5 190.5v313q0 63 -7.5 98t-32.5 81v2h195v-2q-40 -76 -40 -179v-310q0 -231 186 -231q104 0 153 68t49 172v283q0 68 -14 107t-58 90v2h162l5 -2q-44 -51 -58 -90t-14 -107v-282q0 -119 -59.5 -192.5t-193.5 -73.5zM473 782l-245 91
l51 86l200 -167z" />
    <glyph glyph-name="Uacute" unicode="&#xda;" horiz-adv-x="696" 
d="M358 -15q-120 0 -196.5 62.5t-76.5 190.5v313q0 63 -7.5 98t-32.5 81v2h195v-2q-40 -76 -40 -179v-310q0 -231 186 -231q104 0 153 68t49 172v283q0 68 -14 107t-58 90v2h162l5 -2q-44 -51 -58 -90t-14 -107v-282q0 -119 -59.5 -192.5t-193.5 -73.5zM493 959l52 -86
l-241 -91l-6 10z" />
    <glyph glyph-name="Ucircumflex" unicode="&#xdb;" horiz-adv-x="696" 
d="M358 -15q-120 0 -196.5 62.5t-76.5 190.5v313q0 63 -7.5 98t-32.5 81v2h195v-2q-40 -76 -40 -179v-310q0 -231 186 -231q104 0 153 68t49 172v283q0 68 -14 107t-58 90v2h162l5 -2q-44 -51 -58 -90t-14 -107v-282q0 -119 -59.5 -192.5t-193.5 -73.5zM386 858l-147 -76
l-9 10l153 153h6l153 -153l-9 -10z" />
    <glyph glyph-name="Udieresis" unicode="&#xdc;" horiz-adv-x="696" 
d="M358 -15q-120 0 -196.5 62.5t-76.5 190.5v313q0 63 -7.5 98t-32.5 81v2h195v-2q-40 -76 -40 -179v-310q0 -231 186 -231q104 0 153 68t49 172v283q0 68 -14 107t-58 90v2h162l5 -2q-44 -51 -58 -90t-14 -107v-282q0 -119 -59.5 -192.5t-193.5 -73.5zM566 868
q0 -25 -17.5 -42.5t-42.5 -17.5t-42.5 17.5t-17.5 42.5t17.5 43t42.5 18t42.5 -18t17.5 -43zM326 868q0 -25 -17.5 -42.5t-42.5 -17.5t-42.5 17.5t-17.5 42.5t17.5 43t42.5 18t42.5 -18t17.5 -43z" />
    <glyph glyph-name="Yacute" unicode="&#xdd;" horiz-adv-x="601" 
d="M202 2q24 38 32 68t8 81v182l-145 259q-57 100 -110 138v2h227v-2q-20 -17 -18 -52.5t23 -73.5l131 -241l99 173q63 112 16 194v2h149v-2q-39 -37 -64 -71t-64 -101l-129 -224v-183q0 -52 7.5 -81t32.5 -68v-2h-195v2zM462 959l52 -86l-241 -91l-6 10z" />
    <glyph glyph-name="Thorn" unicode="&#xde;" horiz-adv-x="568" 
d="M244 0h-195v2q25 46 32.5 81t7.5 98v370q0 63 -7.5 98t-32.5 81v2h195v-2q-24 -43 -32 -77.5t-8 -90.5h81q147 0 210 -49t63 -128q0 -94 -75 -149.5t-213 -55.5h-66q0 -62 8 -96.5t32 -81.5v-2zM268 542h-26q-6 0 -38 -2v-340h62q90 0 133 49t43 134q0 159 -174 159z" />
    <glyph glyph-name="germandbls" unicode="&#xdf;" horiz-adv-x="591" 
d="M406 -15q-69 0 -133 26l-10 128l6 2q38 -75 69.5 -106.5t73.5 -31.5q40 0 60 23t20 58t-23 60t-55 40.5t-64.5 32t-55.5 44.5t-23 68q0 31 15 56.5t36.5 45.5t43 42.5t36.5 58t15 81.5q0 61 -26 104t-79 43q-58 0 -90.5 -57.5t-32.5 -165.5v-537h-124v2q24 38 24 137v320
h-63v18h63v16q0 129 63.5 207t168.5 78q74 0 127 -39.5t53 -112.5q0 -38 -16 -69t-38.5 -51.5t-45.5 -38.5t-39 -39t-16 -44q0 -24 17 -43t42.5 -31t55.5 -28t55.5 -33.5t42.5 -49t17 -72.5q0 -73 -48 -107.5t-122 -34.5z" />
    <glyph glyph-name="agrave" unicode="&#xe0;" horiz-adv-x="472" 
d="M195 39q51 0 82 29v152q-155 -35 -155 -117q0 -30 19 -47t54 -17zM362 -12q-70 0 -83 63q-58 -66 -144 -66q-47 0 -77 22t-30 63q0 47 42 84t94.5 55.5t112.5 27.5v109q0 42 -21 64t-71 22q-78 0 -133 -45l-5 6q69 99 199 99q69 0 100 -33.5t31 -85.5v-285q0 -44 39 -44
q25 0 49 19l2 -2q-37 -73 -105 -73zM275 532l-201 146l76 71l133 -209z" />
    <glyph glyph-name="aacute" unicode="&#xe1;" horiz-adv-x="472" 
d="M195 39q51 0 82 29v152q-155 -35 -155 -117q0 -30 19 -47t54 -17zM362 -12q-70 0 -83 63q-58 -66 -144 -66q-47 0 -77 22t-30 63q0 47 42 84t94.5 55.5t112.5 27.5v109q0 42 -21 64t-71 22q-78 0 -133 -45l-5 6q69 99 199 99q69 0 100 -33.5t31 -85.5v-285q0 -44 39 -44
q25 0 49 19l2 -2q-37 -73 -105 -73zM282 749l73 -71l-198 -136l-8 8z" />
    <glyph glyph-name="acircumflex" unicode="&#xe2;" horiz-adv-x="472" 
d="M195 39q51 0 82 29v152q-155 -35 -155 -117q0 -30 19 -47t54 -17zM362 -12q-70 0 -83 63q-58 -66 -144 -66q-47 0 -77 22t-30 63q0 47 42 84t94.5 55.5t112.5 27.5v109q0 42 -21 64t-71 22q-78 0 -133 -45l-5 6q69 99 199 99q69 0 100 -33.5t31 -85.5v-285q0 -44 39 -44
q25 0 49 19l2 -2q-37 -73 -105 -73zM216 627l-131 -87l-9 10l137 169h6l137 -169l-9 -10z" />
    <glyph glyph-name="atilde" unicode="&#xe3;" horiz-adv-x="472" 
d="M195 39q51 0 82 29v152q-155 -35 -155 -117q0 -30 19 -47t54 -17zM362 -12q-70 0 -83 63q-58 -66 -144 -66q-47 0 -77 22t-30 63q0 47 42 84t94.5 55.5t112.5 27.5v109q0 42 -21 64t-71 22q-78 0 -133 -45l-5 6q69 99 199 99q69 0 100 -33.5t31 -85.5v-285q0 -44 39 -44
q25 0 49 19l2 -2q-37 -73 -105 -73zM151 680q20 0 70.5 -15.5t75.5 -15.5q44 0 59 43l10 -1q-2 -26 -8 -49t-26 -45t-50 -22q-21 0 -72 16t-76 16q-45 0 -57 -43l-11 1q2 26 8 48.5t26 44.5t51 22z" />
    <glyph glyph-name="adieresis" unicode="&#xe4;" horiz-adv-x="472" 
d="M195 39q51 0 82 29v152q-155 -35 -155 -117q0 -30 19 -47t54 -17zM362 -12q-70 0 -83 63q-58 -66 -144 -66q-47 0 -77 22t-30 63q0 47 42 84t94.5 55.5t112.5 27.5v109q0 42 -21 64t-71 22q-78 0 -133 -45l-5 6q69 99 199 99q69 0 100 -33.5t31 -85.5v-285q0 -44 39 -44
q25 0 49 19l2 -2q-37 -73 -105 -73zM376 658q0 -25 -17.5 -42.5t-42.5 -17.5t-42.5 17.5t-17.5 42.5t17.5 43t42.5 18t42.5 -18t17.5 -43zM176 658q0 -25 -17.5 -42.5t-42.5 -17.5t-42.5 17.5t-17.5 42.5t17.5 43t42.5 18t42.5 -18t17.5 -43z" />
    <glyph glyph-name="aring" unicode="&#xe5;" horiz-adv-x="472" 
d="M195 39q51 0 82 29v152q-155 -35 -155 -117q0 -30 19 -47t54 -17zM362 -12q-70 0 -83 63q-58 -66 -144 -66q-47 0 -77 22t-30 63q0 47 42 84t94.5 55.5t112.5 27.5v109q0 42 -21 64t-71 22q-78 0 -133 -45l-5 6q69 99 199 99q69 0 100 -33.5t31 -85.5v-285q0 -44 39 -44
q25 0 49 19l2 -2q-37 -73 -105 -73zM126 653q0 38 25.5 62t64.5 24t64.5 -24t25.5 -62t-25.5 -61.5t-64.5 -23.5t-64.5 23.5t-25.5 61.5zM165 653q0 -31 13.5 -48.5t37.5 -17.5t37.5 17.5t13.5 48.5t-13.5 49.5t-37.5 18.5t-37.5 -18.5t-13.5 -49.5z" />
    <glyph glyph-name="ae" unicode="&#xe6;" horiz-adv-x="714" 
d="M500 -15q-130 0 -189 103q-60 -103 -171 -103q-50 0 -81 22t-31 63q0 47 42 84t94.5 55.5t112.5 27.5v109q0 42 -21 64t-71 22q-78 0 -133 -45l-5 6q69 99 199 99q87 0 113 -61q63 61 142 61q83 0 134.5 -62t47.5 -133h-307q-1 -5 -1 -15v-15q0 -95 47.5 -146t129.5 -51
q89 0 131 46l6 -4q-19 -59 -67.5 -93t-121.5 -34zM500 474q-48 0 -81 -44t-41 -117l203 5v11q0 145 -81 145zM195 39q71 0 109 60q-26 51 -27 121q-155 -35 -155 -117q0 -30 19 -47t54 -17z" />
    <glyph glyph-name="ccedilla" unicode="&#xe7;" horiz-adv-x="465" 
d="M162 -246q82 35 82 83q0 8 -2.5 14.5t-6 11t-10 8.5t-10.5 6t-12.5 4t-12 2.5t-12 1.5t-9.5 1l-2 2l60 98q-40 3 -71 16q-62 27 -96.5 86t-34.5 142q0 111 76 186.5t177 75.5q78 0 132 -26l13 -111l-9 -2q-24 42 -68.5 81.5t-82.5 39.5q-64 0 -102 -54.5t-38 -147.5
q0 -97 47 -149.5t127 -52.5q88 0 133 46l6 -4q-20 -58 -66 -92q-44 -33 -116 -35l-29 -45q88 -19 88 -83q0 -81 -148 -112z" />
    <glyph glyph-name="egrave" unicode="&#xe8;" horiz-adv-x="473" 
d="M448 133q-21 -66 -72 -107t-126 -41q-99 0 -162 69.5t-63 175.5q0 114 71.5 188t159.5 74q84 0 139.5 -62.5t51.5 -132.5h-321v-19q0 -103 47 -155.5t128 -52.5q86 0 141 67zM252 474q-55 0 -86.5 -44.5t-37.5 -116.5l217 5v11q0 145 -93 145zM301 532l-201 146l76 71
l133 -209z" />
    <glyph glyph-name="eacute" unicode="&#xe9;" horiz-adv-x="473" 
d="M448 133q-21 -66 -72 -107t-126 -41q-99 0 -162 69.5t-63 175.5q0 114 71.5 188t159.5 74q84 0 139.5 -62.5t51.5 -132.5h-321v-19q0 -103 47 -155.5t128 -52.5q86 0 141 67zM252 474q-55 0 -86.5 -44.5t-37.5 -116.5l217 5v11q0 145 -93 145zM308 749l73 -71l-198 -136
l-8 8z" />
    <glyph glyph-name="ecircumflex" unicode="&#xea;" horiz-adv-x="473" 
d="M448 133q-21 -66 -72 -107t-126 -41q-99 0 -162 69.5t-63 175.5q0 114 71.5 188t159.5 74q84 0 139.5 -62.5t51.5 -132.5h-321v-19q0 -103 47 -155.5t128 -52.5q86 0 141 67zM252 474q-55 0 -86.5 -44.5t-37.5 -116.5l217 5v11q0 145 -93 145zM242 627l-131 -87l-9 10
l137 169h6l137 -169l-9 -10z" />
    <glyph glyph-name="edieresis" unicode="&#xeb;" horiz-adv-x="473" 
d="M448 133q-21 -66 -72 -107t-126 -41q-99 0 -162 69.5t-63 175.5q0 114 71.5 188t159.5 74q84 0 139.5 -62.5t51.5 -132.5h-321v-19q0 -103 47 -155.5t128 -52.5q86 0 141 67zM252 474q-55 0 -86.5 -44.5t-37.5 -116.5l217 5v11q0 145 -93 145zM402 658q0 -25 -17.5 -42.5
t-42.5 -17.5t-42.5 17.5t-17.5 42.5t17.5 43t42.5 18t42.5 -18t17.5 -43zM202 658q0 -25 -17.5 -42.5t-42.5 -17.5t-42.5 17.5t-17.5 42.5t17.5 43t42.5 18t42.5 -18t17.5 -43z" />
    <glyph glyph-name="igrave" unicode="&#xec;" horiz-adv-x="242" 
d="M51 2q23 97 23 192v114q0 78 -45 129v7l145 53v-302q0 -74 4 -114.5t18 -78.5v-2h-145v2zM182 532l-201 146l76 71l133 -209z" />
    <glyph glyph-name="iacute" unicode="&#xed;" horiz-adv-x="242" 
d="M51 2q23 97 23 192v114q0 78 -45 129v7l145 53v-302q0 -74 4 -114.5t18 -78.5v-2h-145v2zM189 749l73 -71l-198 -136l-8 8z" />
    <glyph glyph-name="icircumflex" unicode="&#xee;" horiz-adv-x="242" 
d="M51 2q23 97 23 192v114q0 78 -45 129v7l145 53v-302q0 -74 4 -114.5t18 -78.5v-2h-145v2zM123 627l-131 -87l-9 10l137 169h6l137 -169l-9 -10z" />
    <glyph glyph-name="idieresis" unicode="&#xef;" horiz-adv-x="242" 
d="M269 658q0 -25 -17.5 -42.5t-42.5 -17.5t-42.5 17.5t-17.5 42.5t17.5 43t42.5 18t42.5 -18t17.5 -43zM97 658q0 -25 -17.5 -42.5t-42.5 -17.5t-42.5 17.5t-17.5 42.5t17.5 43t42.5 18t42.5 -18t17.5 -43zM51 2q23 97 23 192v114q0 78 -45 129v7l145 53v-302
q0 -74 4 -114.5t18 -78.5v-2h-145v2z" />
    <glyph glyph-name="eth" unicode="&#xf0;" horiz-adv-x="571" 
d="M279 -15q-109 0 -181.5 73t-72.5 189q0 106 69 170.5t162 64.5q111 0 161 -94q-32 147 -114 250l-124 -84l-12 16l123 83q-62 73 -153 115l4 10q114 -40 189 -98l112 75l12 -16l-107 -72q99 -80 146.5 -182.5t47.5 -201.5q0 -128 -72.5 -213t-189.5 -85zM277 3
q78 0 116 71.5t38 178.5q0 44 -5 78q-50 129 -156 129q-63 0 -100.5 -55.5t-37.5 -173.5q0 -111 37.5 -169.5t107.5 -58.5z" />
    <glyph glyph-name="ntilde" unicode="&#xf1;" horiz-adv-x="545" 
d="M196 0h-145v2q23 68 23 192v118q0 79 -45 130v2l141 53v-96l4 -1q76 92 161 92q68 0 104.5 -38.5t36.5 -106.5v-152q0 -75 4 -114.5t19 -78.5v-2h-145v2q22 71 22 192v130q0 47 -22.5 77t-69.5 30q-63 0 -110 -50v-186q0 -133 22 -193v-2zM208 680q20 0 70.5 -15.5
t75.5 -15.5q44 0 59 43l10 -1q-2 -26 -8 -49t-26 -45t-50 -22q-21 0 -72 16t-76 16q-45 0 -57 -43l-11 1q2 26 8 48.5t26 44.5t51 22z" />
    <glyph glyph-name="ograve" unicode="&#xf2;" horiz-adv-x="563" 
d="M281 -15q-105 0 -180.5 75.5t-75.5 177.5q0 101 76.5 177.5t179.5 76.5q104 0 180.5 -76.5t76.5 -177.5q0 -102 -76 -177.5t-181 -75.5zM281 5q73 0 110 67t37 166q0 98 -37.5 166t-109.5 68q-71 0 -108.5 -68t-37.5 -166q0 -99 36.5 -166t109.5 -67zM340 532l-201 146
l76 71l133 -209z" />
    <glyph glyph-name="oacute" unicode="&#xf3;" horiz-adv-x="563" 
d="M281 -15q-105 0 -180.5 75.5t-75.5 177.5q0 101 76.5 177.5t179.5 76.5q104 0 180.5 -76.5t76.5 -177.5q0 -102 -76 -177.5t-181 -75.5zM281 5q73 0 110 67t37 166q0 98 -37.5 166t-109.5 68q-71 0 -108.5 -68t-37.5 -166q0 -99 36.5 -166t109.5 -67zM347 749l73 -71
l-198 -136l-8 8z" />
    <glyph glyph-name="ocircumflex" unicode="&#xf4;" horiz-adv-x="563" 
d="M281 -15q-105 0 -180.5 75.5t-75.5 177.5q0 101 76.5 177.5t179.5 76.5q104 0 180.5 -76.5t76.5 -177.5q0 -102 -76 -177.5t-181 -75.5zM281 5q73 0 110 67t37 166q0 98 -37.5 166t-109.5 68q-71 0 -108.5 -68t-37.5 -166q0 -99 36.5 -166t109.5 -67zM281 627l-131 -87
l-9 10l137 169h6l137 -169l-9 -10z" />
    <glyph glyph-name="otilde" unicode="&#xf5;" horiz-adv-x="563" 
d="M281 -15q-105 0 -180.5 75.5t-75.5 177.5q0 101 76.5 177.5t179.5 76.5q104 0 180.5 -76.5t76.5 -177.5q0 -102 -76 -177.5t-181 -75.5zM281 5q73 0 110 67t37 166q0 98 -37.5 166t-109.5 68q-71 0 -108.5 -68t-37.5 -166q0 -99 36.5 -166t109.5 -67zM216 680
q20 0 70.5 -15.5t75.5 -15.5q44 0 59 43l10 -1q-2 -26 -8 -49t-26 -45t-50 -22q-21 0 -72 16t-76 16q-45 0 -57 -43l-11 1q2 26 8 48.5t26 44.5t51 22z" />
    <glyph glyph-name="odieresis" unicode="&#xf6;" horiz-adv-x="563" 
d="M281 -15q-105 0 -180.5 75.5t-75.5 177.5q0 101 76.5 177.5t179.5 76.5q104 0 180.5 -76.5t76.5 -177.5q0 -102 -76 -177.5t-181 -75.5zM281 5q73 0 110 67t37 166q0 98 -37.5 166t-109.5 68q-71 0 -108.5 -68t-37.5 -166q0 -99 36.5 -166t109.5 -67zM441 658
q0 -25 -17.5 -42.5t-42.5 -17.5t-42.5 17.5t-17.5 42.5t17.5 43t42.5 18t42.5 -18t17.5 -43zM241 658q0 -25 -17.5 -42.5t-42.5 -17.5t-42.5 17.5t-17.5 42.5t17.5 43t42.5 18t42.5 -18t17.5 -43z" />
    <glyph glyph-name="divide" unicode="&#xf7;" horiz-adv-x="546" 
d="M52 297v22h442v-22h-442zM273 75q-28 0 -47.5 20t-19.5 47q0 29 19.5 48.5t47.5 19.5q27 0 47 -19.5t20 -48.5q0 -27 -20 -47t-47 -20zM273 399q-28 0 -47.5 20t-19.5 47q0 29 19.5 48.5t47.5 19.5q27 0 47 -19.5t20 -48.5q0 -27 -20 -47t-47 -20z" />
    <glyph glyph-name="oslash" unicode="&#xf8;" horiz-adv-x="563" 
d="M281 -15q-73 0 -135 38l-62 -90h-27l71 103q-49 36 -76.5 89t-26.5 113q0 101 76.5 177.5t179.5 76.5q70 0 134 -40l63 92h27l-72 -104q49 -37 77 -90t28 -112q0 -102 -76 -177.5t-181 -75.5zM281 5q73 0 110 67t37 166q0 86 -30 151l-223 -323q38 -61 106 -61zM135 238
q0 -88 28 -151l223 323q-38 62 -105 62q-71 0 -108.5 -68t-37.5 -166z" />
    <glyph glyph-name="ugrave" unicode="&#xf9;" horiz-adv-x="524" 
d="M349 112q-32 -59 -68.5 -93t-92.5 -34q-63 0 -96 45.5t-33 124.5v213q0 68 -42 107v2h142v-306q0 -106 88 -106q64 0 97 63v240q0 71 -44 107v2h144v-307q0 -75 9.5 -101.5t35.5 -46.5v-2l-140 -32v124zM312 532l-201 146l76 71l133 -209z" />
    <glyph glyph-name="uacute" unicode="&#xfa;" horiz-adv-x="524" 
d="M349 112q-32 -59 -68.5 -93t-92.5 -34q-63 0 -96 45.5t-33 124.5v213q0 68 -42 107v2h142v-306q0 -106 88 -106q64 0 97 63v240q0 71 -44 107v2h144v-307q0 -75 9.5 -101.5t35.5 -46.5v-2l-140 -32v124zM319 749l73 -71l-198 -136l-8 8z" />
    <glyph glyph-name="ucircumflex" unicode="&#xfb;" horiz-adv-x="524" 
d="M349 112q-32 -59 -68.5 -93t-92.5 -34q-63 0 -96 45.5t-33 124.5v213q0 68 -42 107v2h142v-306q0 -106 88 -106q64 0 97 63v240q0 71 -44 107v2h144v-307q0 -75 9.5 -101.5t35.5 -46.5v-2l-140 -32v124zM253 627l-131 -87l-9 10l137 169h6l137 -169l-9 -10z" />
    <glyph glyph-name="udieresis" unicode="&#xfc;" horiz-adv-x="524" 
d="M349 112q-32 -59 -68.5 -93t-92.5 -34q-63 0 -96 45.5t-33 124.5v213q0 68 -42 107v2h142v-306q0 -106 88 -106q64 0 97 63v240q0 71 -44 107v2h144v-307q0 -75 9.5 -101.5t35.5 -46.5v-2l-140 -32v124zM413 658q0 -25 -17.5 -42.5t-42.5 -17.5t-42.5 17.5t-17.5 42.5
t17.5 43t42.5 18t42.5 -18t17.5 -43zM213 658q0 -25 -17.5 -42.5t-42.5 -17.5t-42.5 17.5t-17.5 42.5t17.5 43t42.5 18t42.5 -18t17.5 -43z" />
    <glyph glyph-name="yacute" unicode="&#xfd;" horiz-adv-x="449" 
d="M39 -129q130 0 168 105l1 4l-142 378q-29 79 -61 117v2h168v-2q-27 -46 4 -128l84 -225l85 227q12 45 6.5 75t-21.5 51v2h113v-2q-48 -51 -74 -123l-155 -401q-38 -96 -78 -132.5t-96 -43.5zM322 749l73 -71l-198 -136l-8 8z" />
    <glyph glyph-name="thorn" unicode="&#xfe;" horiz-adv-x="561" 
d="M294 3q60 0 96 60t36 162q0 103 -39 152.5t-107 49.5q-64 0 -111 -41v-201q0 -95 38 -138.5t87 -43.5zM191 -225h-145v2q23 68 23 192v625q0 78 -45 129v2l145 53v-370h2q73 84 170 84q85 0 137.5 -69.5t52.5 -178.5q0 -113 -64 -186t-183 -73q-67 0 -115 23v-38
q0 -132 22 -193v-2z" />
    <glyph glyph-name="ydieresis" unicode="&#xff;" horiz-adv-x="449" 
d="M39 -129q130 0 168 105l1 4l-142 378q-29 79 -61 117v2h168v-2q-27 -46 4 -128l84 -225l85 227q12 45 6.5 75t-21.5 51v2h113v-2q-48 -51 -74 -123l-155 -401q-38 -96 -78 -132.5t-96 -43.5zM403 658q0 -25 -17.5 -42.5t-42.5 -17.5t-42.5 17.5t-17.5 42.5t17.5 43
t42.5 18t42.5 -18t17.5 -43zM203 658q0 -25 -17.5 -42.5t-42.5 -17.5t-42.5 17.5t-17.5 42.5t17.5 43t42.5 18t42.5 -18t17.5 -43z" />
    <glyph glyph-name="Amacron" unicode="&#x100;" horiz-adv-x="636" 
d="M270 585l-110 -289h219zM133 0h-135v2q33 35 51.5 70.5t43.5 101.5l215 566h20l219 -577q41 -111 91 -161v-2h-199v2q14 19 11.5 65.5t-22.5 100.5l-41 108h-235l-21 -56q-52 -135 2 -218v-2zM162 883h313v-50h-313v50z" />
    <glyph glyph-name="amacron" unicode="&#x101;" horiz-adv-x="472" 
d="M195 39q51 0 82 29v152q-155 -35 -155 -117q0 -30 19 -47t54 -17zM362 -12q-70 0 -83 63q-58 -66 -144 -66q-47 0 -77 22t-30 63q0 47 42 84t94.5 55.5t112.5 27.5v109q0 42 -21 64t-71 22q-78 0 -133 -45l-5 6q69 99 199 99q69 0 100 -33.5t31 -85.5v-285q0 -44 39 -44
q25 0 49 19l2 -2q-37 -73 -105 -73zM75 645h283v-50h-283v50z" />
    <glyph glyph-name="Abreve" unicode="&#x102;" horiz-adv-x="636" 
d="M270 585l-110 -289h219zM133 0h-135v2q33 35 51.5 70.5t43.5 101.5l215 566h20l219 -577q41 -111 91 -161v-2h-199v2q14 19 11.5 65.5t-22.5 100.5l-41 108h-235l-21 -56q-52 -135 2 -218v-2zM318 859q100 0 126 85h10q0 -54 -33 -102t-103 -48q-48 0 -80.5 26.5
t-43.5 58.5t-11 65h10q26 -85 125 -85z" />
    <glyph glyph-name="abreve" unicode="&#x103;" horiz-adv-x="472" 
d="M195 39q51 0 82 29v152q-155 -35 -155 -117q0 -30 19 -47t54 -17zM362 -12q-70 0 -83 63q-58 -66 -144 -66q-47 0 -77 22t-30 63q0 47 42 84t94.5 55.5t112.5 27.5v109q0 42 -21 64t-71 22q-78 0 -133 -45l-5 6q69 99 199 99q69 0 100 -33.5t31 -85.5v-285q0 -44 39 -44
q25 0 49 19l2 -2q-37 -73 -105 -73zM216 632q84 0 104 72h10q0 -49 -28 -91t-88 -42t-86 41.5t-26 91.5h10q20 -72 104 -72z" />
    <glyph glyph-name="Aogonek" unicode="&#x104;" horiz-adv-x="636" 
d="M399 -248q-42 0 -67 23.5t-25 60.5q0 39 28 72.5t82 75.5q34 26 34 74t-23 110l-41 108h-235l-21 -56q-52 -135 2 -218v-2h-135v2q33 35 51.5 70.5t43.5 101.5l215 566h20l219 -577q41 -111 91 -161v-2h-170q-82 -68 -82 -126q0 -27 14 -43t41 -16q44 0 82 45l9 -7
q-54 -101 -133 -101zM270 585l-110 -289h219z" />
    <glyph glyph-name="aogonek" unicode="&#x105;" horiz-adv-x="472" 
d="M333 -248q-42 0 -67 23.5t-25 60.5q0 39 28 72.5t87 79.5q-65 4 -77 63q-58 -66 -144 -66q-47 0 -77 22t-30 63q0 47 42 84t94.5 55.5t112.5 27.5v109q0 42 -21 64t-71 22q-78 0 -133 -45l-5 6q69 99 199 99q69 0 100 -33.5t31 -85.5v-285q0 -44 39 -44q25 0 49 19l2 -2
q-14 -33 -44 -55q-9 -6 -30 -17.5t-32 -20.5q-41 -34 -41 -90q0 -63 55 -63q44 0 82 45l9 -7q-54 -101 -133 -101zM195 39q51 0 82 29v152q-155 -35 -155 -117q0 -30 19 -47t54 -17z" />
    <glyph glyph-name="Cacute" unicode="&#x106;" horiz-adv-x="752" 
d="M685 57q-22 -18 -104.5 -45t-170.5 -27q-170 0 -275 109t-105 272q0 161 113 271t286 110q131 0 252 -48l20 -164l-8 -3q-78 110 -135.5 152.5t-141.5 42.5q-132 0 -195.5 -98t-63.5 -263q0 -164 63 -262.5t190 -98.5q99 0 164 60t123 178l8 -3zM521 959l52 -86l-241 -91
l-6 10z" />
    <glyph glyph-name="cacute" unicode="&#x107;" horiz-adv-x="465" 
d="M436 112q-45 -127 -187 -127q-102 0 -163 67t-61 178t76 186.5t177 75.5q78 0 132 -26l13 -111l-9 -2q-24 42 -68.5 81.5t-82.5 39.5q-64 0 -102 -54.5t-38 -147.5q0 -97 47 -149.5t127 -52.5q88 0 133 46zM313 749l73 -71l-198 -136l-8 8z" />
    <glyph glyph-name="Ccircumflex" unicode="&#x108;" horiz-adv-x="752" 
d="M685 57q-22 -18 -104.5 -45t-170.5 -27q-170 0 -275 109t-105 272q0 161 113 271t286 110q131 0 252 -48l20 -164l-8 -3q-78 110 -135.5 152.5t-141.5 42.5q-132 0 -195.5 -98t-63.5 -263q0 -164 63 -262.5t190 -98.5q99 0 164 60t123 178l8 -3zM414 858l-147 -76l-9 10
l153 153h6l153 -153l-9 -10z" />
    <glyph glyph-name="ccircumflex" unicode="&#x109;" horiz-adv-x="465" 
d="M436 112q-45 -127 -187 -127q-102 0 -163 67t-61 178t76 186.5t177 75.5q78 0 132 -26l13 -111l-9 -2q-24 42 -68.5 81.5t-82.5 39.5q-64 0 -102 -54.5t-38 -147.5q0 -97 47 -149.5t127 -52.5q88 0 133 46zM247 627l-131 -87l-9 10l137 169h6l137 -169l-9 -10z" />
    <glyph glyph-name="Cdotaccent" unicode="&#x10a;" horiz-adv-x="752" 
d="M685 57q-22 -18 -104.5 -45t-170.5 -27q-170 0 -275 109t-105 272q0 161 113 271t286 110q131 0 252 -48l20 -164l-8 -3q-78 110 -135.5 152.5t-141.5 42.5q-132 0 -195.5 -98t-63.5 -263q0 -164 63 -262.5t190 -98.5q99 0 164 60t123 178l8 -3zM474 868
q0 -25 -17.5 -42.5t-42.5 -17.5t-42.5 17.5t-17.5 42.5t17.5 43t42.5 18t42.5 -18t17.5 -43z" />
    <glyph glyph-name="cdotaccent" unicode="&#x10b;" horiz-adv-x="465" 
d="M436 112q-45 -127 -187 -127q-102 0 -163 67t-61 178t76 186.5t177 75.5q78 0 132 -26l13 -111l-9 -2q-24 42 -68.5 81.5t-82.5 39.5q-64 0 -102 -54.5t-38 -147.5q0 -97 47 -149.5t127 -52.5q88 0 133 46zM307 658q0 -25 -17.5 -42.5t-42.5 -17.5t-42.5 17.5t-17.5 42.5
t17.5 43t42.5 18t42.5 -18t17.5 -43z" />
    <glyph glyph-name="Ccaron" unicode="&#x10c;" horiz-adv-x="752" 
d="M685 57q-22 -18 -104.5 -45t-170.5 -27q-170 0 -275 109t-105 272q0 161 113 271t286 110q131 0 252 -48l20 -164l-8 -3q-78 110 -135.5 152.5t-141.5 42.5q-132 0 -195.5 -98t-63.5 -263q0 -164 63 -262.5t190 -98.5q99 0 164 60t123 178l8 -3zM411 782l-153 153l9 10
l147 -76l147 76l9 -10l-153 -153h-6z" />
    <glyph glyph-name="ccaron" unicode="&#x10d;" horiz-adv-x="465" 
d="M436 112q-45 -127 -187 -127q-102 0 -163 67t-61 178t76 186.5t177 75.5q78 0 132 -26l13 -111l-9 -2q-24 42 -68.5 81.5t-82.5 39.5q-64 0 -102 -54.5t-38 -147.5q0 -97 47 -149.5t127 -52.5q88 0 133 46zM107 709l9 10l131 -87l131 87l9 -10l-137 -169h-6z" />
    <glyph glyph-name="Dcaron" unicode="&#x10e;" horiz-adv-x="753" 
d="M49 2q24 40 32 70t8 82v424q0 52 -8 82t-32 70v2q62 0 134.5 2t139.5 2q188 0 294 -95.5t106 -271.5q0 -179 -103.5 -274t-296.5 -95h-274v2zM204 716v-699l111 3q150 4 215.5 86t65.5 249q0 185 -69 273t-213 88h-110zM357 782l-153 153l9 10l147 -76l147 76l9 -10
l-153 -153h-6z" />
    <glyph glyph-name="dcaron" unicode="&#x10f;" horiz-adv-x="567" 
d="M274 52q72 0 118 54v257q-25 111 -114 111q-65 0 -104 -62t-39 -161q0 -92 35.5 -145.5t103.5 -53.5zM393 86q-24 -43 -68.5 -72t-102.5 -29q-87 0 -139.5 65.5t-52.5 166.5q0 116 69 195.5t192 79.5q55 0 101 -18v119q0 79 -45 130v2l145 53v-565q0 -97 9.5 -132.5
t36.5 -58.5v-2l-142 -32v98h-3zM559 775h90l-103 -203l-10 2z" />
    <glyph glyph-name="Dcroat" unicode="&#x110;" horiz-adv-x="759" 
d="M4 377h91v201q0 52 -8 82t-32 70v2q62 0 134.5 2t139.5 2q188 0 294 -95.5t106 -271.5q0 -179 -103.5 -274t-296.5 -95h-274v2q24 40 32 70t8 82v203h-91v20zM210 716v-339h166v-20h-166v-340l111 3q150 4 215.5 86t65.5 249q0 185 -69 273t-213 88h-110z" />
    <glyph glyph-name="dcroat" unicode="&#x111;" horiz-adv-x="567" 
d="M393 86q-24 -43 -68.5 -72t-102.5 -29q-87 0 -139.5 65.5t-52.5 166.5q0 116 69 195.5t192 79.5q55 0 101 -18v105h-172v20h172q-2 48 -14 74q-14 32 -31 50v2l145 53v-179h60v-20h-60v-366q0 -97 9.5 -132.5t36.5 -58.5v-2l-142 -32v98h-3zM274 52q72 0 118 54v257
q-25 111 -114 111q-65 0 -104 -62t-39 -161q0 -92 35.5 -145.5t103.5 -53.5z" />
    <glyph glyph-name="Emacron" unicode="&#x112;" horiz-adv-x="620" 
d="M561 0h-512v2q39 90 39 167v394q0 47 -9 82t-30 85v2h462l39 -178l-8 -3q-10 10 -53 60t-69.5 74t-46.5 25l-169 7v-338h86q17 0 36 12t31 25t30.5 36.5t26.5 31.5h9v-226h-9q-5 5 -25.5 29t-31.5 36t-30.5 24t-36.5 12h-86v-344l178 7q38 1 81 32.5t70.5 64t63.5 82.5
l8 -3zM153 883h313v-50h-313v50z" />
    <glyph glyph-name="emacron" unicode="&#x113;" horiz-adv-x="473" 
d="M448 133q-21 -66 -72 -107t-126 -41q-99 0 -162 69.5t-63 175.5q0 114 71.5 188t159.5 74q84 0 139.5 -62.5t51.5 -132.5h-321v-19q0 -103 47 -155.5t128 -52.5q86 0 141 67zM252 474q-55 0 -86.5 -44.5t-37.5 -116.5l217 5v11q0 145 -93 145zM101 645h283v-50h-283v50z
" />
    <glyph glyph-name="Ebreve" unicode="&#x114;" horiz-adv-x="620" 
d="M561 0h-512v2q39 90 39 167v394q0 47 -9 82t-30 85v2h462l39 -178l-8 -3q-10 10 -53 60t-69.5 74t-46.5 25l-169 7v-338h86q17 0 36 12t31 25t30.5 36.5t26.5 31.5h9v-226h-9q-5 5 -25.5 29t-31.5 36t-30.5 24t-36.5 12h-86v-344l178 7q38 1 81 32.5t70.5 64t63.5 82.5
l8 -3zM309 859q100 0 126 85h10q0 -54 -33 -102t-103 -48q-48 0 -80.5 26.5t-43.5 58.5t-11 65h10q26 -85 125 -85z" />
    <glyph glyph-name="ebreve" unicode="&#x115;" horiz-adv-x="473" 
d="M448 133q-21 -66 -72 -107t-126 -41q-99 0 -162 69.5t-63 175.5q0 114 71.5 188t159.5 74q84 0 139.5 -62.5t51.5 -132.5h-321v-19q0 -103 47 -155.5t128 -52.5q86 0 141 67zM252 474q-55 0 -86.5 -44.5t-37.5 -116.5l217 5v11q0 145 -93 145zM242 632q84 0 104 72h10
q0 -49 -28 -91t-88 -42t-86 41.5t-26 91.5h10q20 -72 104 -72z" />
    <glyph glyph-name="Edotaccent" unicode="&#x116;" horiz-adv-x="620" 
d="M561 0h-512v2q39 90 39 167v394q0 47 -9 82t-30 85v2h462l39 -178l-8 -3q-10 10 -53 60t-69.5 74t-46.5 25l-169 7v-338h86q17 0 36 12t31 25t30.5 36.5t26.5 31.5h9v-226h-9q-5 5 -25.5 29t-31.5 36t-30.5 24t-36.5 12h-86v-344l178 7q38 1 81 32.5t70.5 64t63.5 82.5
l8 -3zM369 868q0 -25 -17.5 -42.5t-42.5 -17.5t-42.5 17.5t-17.5 42.5t17.5 43t42.5 18t42.5 -18t17.5 -43z" />
    <glyph glyph-name="edotaccent" unicode="&#x117;" horiz-adv-x="473" 
d="M448 133q-21 -66 -72 -107t-126 -41q-99 0 -162 69.5t-63 175.5q0 114 71.5 188t159.5 74q84 0 139.5 -62.5t51.5 -132.5h-321v-19q0 -103 47 -155.5t128 -52.5q86 0 141 67zM252 474q-55 0 -86.5 -44.5t-37.5 -116.5l217 5v11q0 145 -93 145zM302 658q0 -25 -17.5 -42.5
t-42.5 -17.5t-42.5 17.5t-17.5 42.5t17.5 43t42.5 18t42.5 -18t17.5 -43z" />
    <glyph glyph-name="Eogonek" unicode="&#x118;" horiz-adv-x="620" 
d="M561 0h-94q-23 -18 -40 -38q-41 -46 -41 -88q0 -27 14 -43t41 -16q44 0 82 45l9 -7q-54 -101 -133 -101q-42 0 -67 23.5t-25 60.5q0 56 79 123q26 23 51 41h-388v2q39 90 39 167v394q0 47 -9 82t-30 85v2h462l39 -178l-8 -3q-10 10 -53 60t-69.5 74t-46.5 25l-169 7v-338
h86q17 0 36 12t31 25t30.5 36.5t26.5 31.5h9v-226h-9q-5 5 -25.5 29t-31.5 36t-30.5 24t-36.5 12h-86v-344l178 7q38 1 81 32.5t70.5 64t63.5 82.5l8 -3z" />
    <glyph glyph-name="eogonek" unicode="&#x119;" horiz-adv-x="473" 
d="M388 -147q-54 -101 -133 -101q-42 0 -66.5 23t-24.5 62q0 44 31 79.5t88 69.5q-2 -1 -16 -1h-16q-105 0 -165.5 66t-60.5 177q0 118 67.5 191t158.5 73q85 0 137.5 -61.5t48.5 -133.5h-313q-1 -5 -1 -15v-15q0 -95 47.5 -146t130.5 -51q90 0 136 46l6 -4q-19 -55 -67 -92
q-11 -8 -21.5 -14.5t-22 -12.5t-17.5 -9q-73 -41 -73 -108q0 -61 57 -61q42 0 80 45zM250 474q-50 0 -83 -43.5t-41 -116.5l209 4v11q0 145 -85 145z" />
    <glyph glyph-name="Ecaron" unicode="&#x11a;" horiz-adv-x="620" 
d="M561 0h-512v2q39 90 39 167v394q0 47 -9 82t-30 85v2h462l39 -178l-8 -3q-10 10 -53 60t-69.5 74t-46.5 25l-169 7v-338h86q17 0 36 12t31 25t30.5 36.5t26.5 31.5h9v-226h-9q-5 5 -25.5 29t-31.5 36t-30.5 24t-36.5 12h-86v-344l178 7q38 1 81 32.5t70.5 64t63.5 82.5
l8 -3zM306 782l-153 153l9 10l147 -76l147 76l9 -10l-153 -153h-6z" />
    <glyph glyph-name="ecaron" unicode="&#x11b;" horiz-adv-x="473" 
d="M448 133q-21 -66 -72 -107t-126 -41q-99 0 -162 69.5t-63 175.5q0 114 71.5 188t159.5 74q84 0 139.5 -62.5t51.5 -132.5h-321v-19q0 -103 47 -155.5t128 -52.5q86 0 141 67zM252 474q-55 0 -86.5 -44.5t-37.5 -116.5l217 5v11q0 145 -93 145zM102 709l9 10l131 -87
l131 87l9 -10l-137 -169h-6z" />
    <glyph glyph-name="Gcircumflex" unicode="&#x11c;" horiz-adv-x="783" 
d="M713 91q-4 -3 -27 -18.5t-36 -23.5t-41 -22.5t-53 -22t-61.5 -13.5t-75.5 -6q-174 0 -281.5 109t-107.5 272q0 164 110.5 272.5t295.5 108.5q112 0 256 -48l20 -163l-9 -3q-72 105 -134.5 149.5t-141.5 44.5q-132 0 -201 -100.5t-69 -261.5q0 -105 26 -183.5t86 -127.5
t150 -49q84 0 134 41t50 118q0 53 -9.5 87t-36.5 79v2h196v-2q-25 -46 -32.5 -81t-7.5 -98v-60zM414 858l-147 -76l-9 10l153 153h6l153 -153l-9 -10z" />
    <glyph glyph-name="gcircumflex" unicode="&#x11d;" horiz-adv-x="520" 
d="M236 169q90 0 90 152q0 153 -91 153q-89 0 -89 -153q0 -152 90 -152zM492 -66q-2 -68 -72 -113.5t-193 -45.5q-97 0 -158 30.5t-61 83.5q0 67 95 93q-57 21 -57 78q0 43 30.5 70.5t74.5 38.5q-48 21 -76.5 61.5t-28.5 90.5q0 72 55 121.5t134 49.5q78 0 134 -50l127 74
l2 -1v-89h-4l-111 2q43 -46 43 -107q0 -70 -55.5 -120t-134.5 -50q-35 0 -72 13q-44 -21 -44 -55q0 -26 24.5 -36.5t75.5 -12.5l100 -3q76 -2 125 -33.5t47 -89.5zM268 -190q81 0 124 23.5t43 61.5q0 61 -122 66l-108 4q-52 2 -87 12q-25 -23 -25 -61q0 -51 45 -78.5
t130 -27.5zM243 627l-131 -87l-9 10l137 169h6l137 -169l-9 -10z" />
    <glyph glyph-name="Gbreve" unicode="&#x11e;" horiz-adv-x="783" 
d="M713 91q-4 -3 -27 -18.5t-36 -23.5t-41 -22.5t-53 -22t-61.5 -13.5t-75.5 -6q-174 0 -281.5 109t-107.5 272q0 164 110.5 272.5t295.5 108.5q112 0 256 -48l20 -163l-9 -3q-72 105 -134.5 149.5t-141.5 44.5q-132 0 -201 -100.5t-69 -261.5q0 -105 26 -183.5t86 -127.5
t150 -49q84 0 134 41t50 118q0 53 -9.5 87t-36.5 79v2h196v-2q-25 -46 -32.5 -81t-7.5 -98v-60zM414 859q100 0 126 85h10q0 -54 -33 -102t-103 -48q-48 0 -80.5 26.5t-43.5 58.5t-11 65h10q26 -85 125 -85z" />
    <glyph glyph-name="gbreve" unicode="&#x11f;" horiz-adv-x="520" 
d="M236 169q90 0 90 152q0 153 -91 153q-89 0 -89 -153q0 -152 90 -152zM492 -66q-2 -68 -72 -113.5t-193 -45.5q-97 0 -158 30.5t-61 83.5q0 67 95 93q-57 21 -57 78q0 43 30.5 70.5t74.5 38.5q-48 21 -76.5 61.5t-28.5 90.5q0 72 55 121.5t134 49.5q78 0 134 -50l127 74
l2 -1v-89h-4l-111 2q43 -46 43 -107q0 -70 -55.5 -120t-134.5 -50q-35 0 -72 13q-44 -21 -44 -55q0 -26 24.5 -36.5t75.5 -12.5l100 -3q76 -2 125 -33.5t47 -89.5zM268 -190q81 0 124 23.5t43 61.5q0 61 -122 66l-108 4q-52 2 -87 12q-25 -23 -25 -61q0 -51 45 -78.5
t130 -27.5zM244 632q84 0 104 72h10q0 -49 -28 -91t-88 -42t-86 41.5t-26 91.5h10q20 -72 104 -72z" />
    <glyph glyph-name="Gdotaccent" unicode="&#x120;" horiz-adv-x="783" 
d="M713 91q-4 -3 -27 -18.5t-36 -23.5t-41 -22.5t-53 -22t-61.5 -13.5t-75.5 -6q-174 0 -281.5 109t-107.5 272q0 164 110.5 272.5t295.5 108.5q112 0 256 -48l20 -163l-9 -3q-72 105 -134.5 149.5t-141.5 44.5q-132 0 -201 -100.5t-69 -261.5q0 -105 26 -183.5t86 -127.5
t150 -49q84 0 134 41t50 118q0 53 -9.5 87t-36.5 79v2h196v-2q-25 -46 -32.5 -81t-7.5 -98v-60zM474 868q0 -25 -17.5 -42.5t-42.5 -17.5t-42.5 17.5t-17.5 42.5t17.5 43t42.5 18t42.5 -18t17.5 -43z" />
    <glyph glyph-name="gdotaccent" unicode="&#x121;" horiz-adv-x="520" 
d="M236 169q90 0 90 152q0 153 -91 153q-89 0 -89 -153q0 -152 90 -152zM492 -66q-2 -68 -72 -113.5t-193 -45.5q-97 0 -158 30.5t-61 83.5q0 67 95 93q-57 21 -57 78q0 43 30.5 70.5t74.5 38.5q-48 21 -76.5 61.5t-28.5 90.5q0 72 55 121.5t134 49.5q78 0 134 -50l127 74
l2 -1v-89h-4l-111 2q43 -46 43 -107q0 -70 -55.5 -120t-134.5 -50q-35 0 -72 13q-44 -21 -44 -55q0 -26 24.5 -36.5t75.5 -12.5l100 -3q76 -2 125 -33.5t47 -89.5zM268 -190q81 0 124 23.5t43 61.5q0 61 -122 66l-108 4q-52 2 -87 12q-25 -23 -25 -61q0 -51 45 -78.5
t130 -27.5zM304 658q0 -25 -17.5 -42.5t-42.5 -17.5t-42.5 17.5t-17.5 42.5t17.5 43t42.5 18t42.5 -18t17.5 -43z" />
    <glyph glyph-name="uni0122" unicode="&#x122;" horiz-adv-x="783" 
d="M713 91q-4 -3 -27 -18.5t-36 -23.5t-41 -22.5t-53 -22t-61.5 -13.5t-75.5 -6q-174 0 -281.5 109t-107.5 272q0 164 110.5 272.5t295.5 108.5q112 0 256 -48l20 -163l-9 -3q-72 105 -134.5 149.5t-141.5 44.5q-132 0 -201 -100.5t-69 -261.5q0 -105 26 -183.5t86 -127.5
t150 -49q84 0 134 41t50 118q0 53 -9.5 87t-36.5 79v2h196v-2q-25 -46 -32.5 -81t-7.5 -98v-60zM348 -239q56 38 56 85q0 23 -42 65v1l75 50q42 -28 42 -70q0 -39 -40 -77t-88 -59z" />
    <glyph glyph-name="uni0123" unicode="&#x123;" horiz-adv-x="520" 
d="M236 169q90 0 90 152q0 153 -91 153q-89 0 -89 -153q0 -152 90 -152zM492 -66q-2 -68 -72 -113.5t-193 -45.5q-97 0 -158 30.5t-61 83.5q0 67 95 93q-57 21 -57 78q0 43 30.5 70.5t74.5 38.5q-48 21 -76.5 61.5t-28.5 90.5q0 72 55 121.5t134 49.5q78 0 134 -50l127 74
l2 -1v-89h-4l-111 2q43 -46 43 -107q0 -70 -55.5 -120t-134.5 -50q-35 0 -72 13q-44 -21 -44 -55q0 -26 24.5 -36.5t75.5 -12.5l100 -3q76 -2 125 -33.5t47 -89.5zM268 -190q81 0 124 23.5t43 61.5q0 61 -122 66l-108 4q-52 2 -87 12q-25 -23 -25 -61q0 -51 45 -78.5
t130 -27.5zM330 789q-56 -38 -56 -85q0 -23 42 -65v-1l-75 -50q-42 28 -42 70q0 39 40 77t88 59z" />
    <glyph glyph-name="Hcircumflex" unicode="&#x124;" horiz-adv-x="757" 
d="M49 2q24 46 32 82t8 97v370q0 61 -8 97t-32 82v2h195v-2q-25 -46 -32.5 -81t-7.5 -98v-164h349v164q0 63 -7.5 98t-32.5 81v2h195v-2q-25 -46 -32.5 -81t-7.5 -98v-370q0 -63 7.5 -98t32.5 -81v-2h-195v2q25 46 32.5 81t7.5 98v186h-349v-186q0 -63 7.5 -98t32.5 -81v-2
h-195v2zM378 858l-147 -76l-9 10l153 153h6l153 -153l-9 -10z" />
    <glyph glyph-name="hcircumflex" unicode="&#x125;" horiz-adv-x="542" 
d="M48 0v2q22 67 22 192v400q0 79 -45 130v2l145 52v-378q76 92 161 92q68 0 105 -38.5t37 -106.5v-153q0 -76 3.5 -115t18.5 -77v-2h-145v2q23 68 23 192v130q0 46 -23 76.5t-69 30.5q-62 0 -111 -51v-186q0 -132 23 -192v-2h-145zM271 878l-147 -76l-9 10l153 153h6
l153 -153l-9 -10z" />
    <glyph glyph-name="Hbar" unicode="&#x126;" horiz-adv-x="769" 
d="M55 2q24 46 32 82t8 97v366h-90v20h90l-2 38q-5 62 -38 125v2h195v-2q-34 -65 -39 -125q-1 -11 -1 -38h349l-2 38q-2 57 -38 125v2h195v-2q-34 -65 -39 -125q-1 -11 -1 -38h90v-20h-90v-366q0 -63 7.5 -98t32.5 -81v-2h-195v2q25 46 32.5 81t7.5 98v186h-349v-186
q0 -63 7.5 -98t32.5 -81v-2h-195v2zM559 387v160h-349v-160h349z" />
    <glyph glyph-name="hbar" unicode="&#x127;" horiz-adv-x="542" 
d="M48 0v2q22 67 22 192v385h-60v20h60q-2 48 -14 74q-14 33 -31 51v2l145 52v-179h172v-20h-172v-179q76 92 161 92q68 0 105 -38.5t37 -106.5v-153q0 -76 3.5 -115t18.5 -77v-2h-145v2q23 68 23 192v130q0 46 -23 76.5t-69 30.5q-62 0 -111 -51v-186q0 -132 23 -192v-2
h-145z" />
    <glyph glyph-name="Itilde" unicode="&#x128;" horiz-adv-x="293" 
d="M49 2q25 46 32.5 81t7.5 98v370q0 63 -7.5 98t-32.5 81v2h195v-2q-25 -46 -32.5 -81t-7.5 -98v-370q0 -63 7.5 -98t32.5 -81v-2h-195v2zM68 905q31 0 85.5 -20t86.5 -20q27 0 41 11t25 43l10 -2q-1 -26 -4.5 -43.5t-12 -39t-27.5 -32.5t-48 -11q-31 0 -85.5 20t-86.5 20
q-27 0 -41 -11t-25 -43l-10 2q1 26 4.5 43.5t12 39t27.5 32.5t48 11z" />
    <glyph glyph-name="itilde" unicode="&#x129;" horiz-adv-x="242" 
d="M51 2q23 97 23 192v114q0 78 -45 129v7l145 53v-302q0 -74 4 -114.5t18 -78.5v-2h-145v2zM48 680q20 0 70.5 -15.5t75.5 -15.5q44 0 59 43l10 -1q-2 -26 -8 -49t-26 -45t-50 -22q-21 0 -72 16t-76 16q-45 0 -57 -43l-11 1q2 26 8 48.5t26 44.5t51 22z" />
    <glyph glyph-name="Imacron" unicode="&#x12a;" horiz-adv-x="293" 
d="M49 2q25 46 32.5 81t7.5 98v370q0 63 -7.5 98t-32.5 81v2h195v-2q-25 -46 -32.5 -81t-7.5 -98v-370q0 -63 7.5 -98t32.5 -81v-2h-195v2zM-10 883h313v-50h-313v50z" />
    <glyph glyph-name="imacron" unicode="&#x12b;" horiz-adv-x="242" 
d="M7 645h213v-50h-213v50zM51 2q23 97 23 192v114q0 78 -45 129v7l145 53v-302q0 -74 4 -114.5t18 -78.5v-2h-145v2z" />
    <glyph glyph-name="Ibreve" unicode="&#x12c;" horiz-adv-x="293" 
d="M49 2q25 46 32.5 81t7.5 98v370q0 63 -7.5 98t-32.5 81v2h195v-2q-25 -46 -32.5 -81t-7.5 -98v-370q0 -63 7.5 -98t32.5 -81v-2h-195v2zM146 859q100 0 126 85h10q0 -54 -33 -102t-103 -48q-48 0 -80.5 26.5t-43.5 58.5t-11 65h10q26 -85 125 -85z" />
    <glyph glyph-name="ibreve" unicode="&#x12d;" horiz-adv-x="242" 
d="M51 2q23 97 23 192v114q0 78 -45 129v7l145 53v-302q0 -74 4 -114.5t18 -78.5v-2h-145v2zM123 632q84 0 104 72h10q0 -49 -28 -91t-88 -42t-86 41.5t-26 91.5h10q20 -72 104 -72z" />
    <glyph glyph-name="Iogonek" unicode="&#x12e;" horiz-adv-x="293" 
d="M49 2q25 46 32.5 81t7.5 98v370q0 63 -7.5 98t-32.5 81v2h195v-2q-25 -46 -32.5 -81t-7.5 -98v-370q0 -63 7.5 -98t32.5 -81v-2h-50q-23 -18 -40 -38q-41 -46 -41 -88q0 -27 14 -43t41 -16q44 0 82 45l9 -7q-54 -101 -133 -101q-42 0 -67 23.5t-25 60.5q0 56 79 123
q26 23 51 41h-115v2z" />
    <glyph glyph-name="iogonek" unicode="&#x12f;" horiz-adv-x="242" 
d="M51 2q23 97 23 192v114q0 78 -45 129v7l145 53v-302q0 -74 4 -114.5t18 -78.5v-2h-25q-23 -18 -40 -38q-41 -46 -41 -88q0 -27 14 -43t41 -16q44 0 82 45l9 -7q-54 -101 -133 -101q-42 0 -67 23.5t-25 60.5q0 56 79 123q26 23 51 41h-90v2zM179 658q0 -25 -17.5 -42.5
t-42.5 -17.5t-42.5 17.5t-17.5 42.5t17.5 43t42.5 18t42.5 -18t17.5 -43z" />
    <glyph glyph-name="Idotaccent" unicode="&#x130;" horiz-adv-x="293" 
d="M49 2q25 46 32.5 81t7.5 98v370q0 63 -7.5 98t-32.5 81v2h195v-2q-25 -46 -32.5 -81t-7.5 -98v-370q0 -63 7.5 -98t32.5 -81v-2h-195v2zM206 868q0 -25 -17.5 -42.5t-42.5 -17.5t-42.5 17.5t-17.5 42.5t17.5 43t42.5 18t42.5 -18t17.5 -43z" />
    <glyph glyph-name="dotlessi" unicode="&#x131;" horiz-adv-x="242" 
d="M51 2q23 97 23 192v114q0 78 -45 129v7l145 53v-302q0 -74 4 -114.5t18 -78.5v-2h-145v2z" />
    <glyph glyph-name="IJ" unicode="&#x132;" horiz-adv-x="683" 
d="M49 2q25 46 32.5 81t7.5 98v370q0 63 -7.5 98t-32.5 81v2h195v-2q-25 -46 -32.5 -81t-7.5 -98v-370q0 -63 7.5 -98t32.5 -81v-2h-195v2zM603 138q0 -74 -44.5 -113.5t-124.5 -39.5q-60 0 -117 22l-18 165l8 3q75 -121 92 -142q24 -28 44 -28q21 0 33.5 20.5t12.5 56.5
v469q0 61 -8 97t-32 82v2h194v-2q-25 -46 -32.5 -81t-7.5 -98v-413z" />
    <glyph glyph-name="ij" unicode="&#x133;" horiz-adv-x="480" 
d="M179 658q0 -25 -17.5 -42.5t-42.5 -17.5t-42.5 17.5t-17.5 42.5t17.5 43t42.5 18t42.5 -18t17.5 -43zM51 2q23 97 23 192v114q0 78 -45 129v7l145 53v-302q0 -74 4 -114.5t18 -78.5v-2h-145v2zM414 658q0 -25 -17.5 -42.5t-42.5 -17.5t-42.5 17.5t-17.5 42.5t17.5 43
t42.5 18t42.5 -18t17.5 -43zM244 -209q65 40 65 141v376q0 78 -45 129v7l145 53l-2 -495q0 -97 -45.5 -152.5t-115.5 -64.5z" />
    <glyph glyph-name="Jcircumflex" unicode="&#x134;" horiz-adv-x="404" 
d="M324 138q0 -74 -44.5 -113.5t-124.5 -39.5q-60 0 -117 22l-18 165l8 3q75 -121 92 -142q24 -28 44 -28q21 0 33.5 20.5t12.5 56.5v469q0 61 -8 97t-32 82v2h194v-2q-25 -46 -32.5 -81t-7.5 -98v-413zM267 858l-147 -76l-9 10l153 153h6l153 -153l-9 -10z" />
    <glyph glyph-name="jcircumflex" unicode="&#x135;" horiz-adv-x="245" 
d="M9 -237q65 40 65 141v404q0 78 -45 129v7l145 53l-2 -523q0 -97 -45.5 -152.5t-115.5 -64.5zM122 627l-131 -87l-9 10l137 169h6l137 -169l-9 -10z" />
    <glyph glyph-name="uni0136" unicode="&#x136;" horiz-adv-x="655" 
d="M49 2q24 46 32 82t8 97v370q0 61 -8 97t-32 82v2h195v-2q-25 -46 -32.5 -81t-7.5 -98v-370q0 -63 7.5 -98t32.5 -81v-2h-195v2zM492 0l-272 361l189 218q90 105 56 151v2h158v-2q-60 -31 -98 -63.5t-84 -85.5l-130 -148l232 -308q61 -81 122 -123l1 -2h-174zM268 -239
q56 38 56 85q0 23 -42 65v1l75 50q42 -28 42 -70q0 -39 -40 -77t-88 -59z" />
    <glyph glyph-name="uni0137" unicode="&#x137;" horiz-adv-x="479" 
d="M48 2q22 47 22 137v455q0 78 -45 129v2l145 53v-638q0 -95 24 -138v-2h-146v2zM350 0l-172 248l115 125q24 26 32 54.5t-4 47.5v2h130v-2q-65 -29 -144 -114l-52 -57l147 -212q19 -26 29.5 -39.5t25.5 -27.5t32 -23v-2h-139zM183 -239q56 38 56 85q0 23 -42 65v1l75 50
q42 -28 42 -70q0 -39 -40 -77t-88 -59z" />
    <glyph glyph-name="Lacute" unicode="&#x139;" horiz-adv-x="589" 
d="M49 0v2q24 46 32 82t8 97v370q0 61 -8 97t-32 82v2h195v-2q-25 -46 -32.5 -81t-7.5 -98v-537l151 6q100 4 216 181l8 -3l-44 -198h-486zM253 959l52 -86l-241 -91l-6 10z" />
    <glyph glyph-name="lacute" unicode="&#x13a;" horiz-adv-x="238" 
d="M47 2q22 47 22 137v455q0 78 -45 129v2l145 53v-638q0 -97 23 -138v-2h-145v2zM227 959l52 -86l-241 -91l-6 10z" />
    <glyph glyph-name="uni013B" unicode="&#x13b;" horiz-adv-x="589" 
d="M49 0v2q24 46 32 82t8 97v370q0 61 -8 97t-32 82v2h195v-2q-25 -46 -32.5 -81t-7.5 -98v-537l151 6q100 4 216 181l8 -3l-44 -198h-486zM250 -239q56 38 56 85q0 23 -42 65v1l75 50q42 -28 42 -70q0 -39 -40 -77t-88 -59z" />
    <glyph glyph-name="uni013C" unicode="&#x13c;" horiz-adv-x="238" 
d="M47 2q22 47 22 137v455q0 78 -45 129v2l145 53v-638q0 -97 23 -138v-2h-145v2zM44 -239q56 38 56 85q0 23 -42 65v1l75 50q42 -28 42 -70q0 -39 -40 -77t-88 -59z" />
    <glyph glyph-name="Lcaron" unicode="&#x13d;" horiz-adv-x="589" 
d="M49 0v2q24 46 32 82t8 97v370q0 61 -8 97t-32 82v2h195v-2q-25 -46 -32.5 -81t-7.5 -98v-537l151 6q100 4 216 181l8 -3l-44 -198h-486zM310 732h90l-103 -203l-10 2z" />
    <glyph glyph-name="lcaron" unicode="&#x13e;" horiz-adv-x="238" 
d="M47 2q22 47 22 137v455q0 78 -45 129v2l145 53v-638q0 -97 23 -138v-2h-145v2zM236 775h90l-103 -203l-10 2z" />
    <glyph glyph-name="Ldot" unicode="&#x13f;" horiz-adv-x="589" 
d="M49 0v2q24 46 32 82t8 97v370q0 61 -8 97t-32 82v2h195v-2q-25 -46 -32.5 -81t-7.5 -98v-537l151 6q100 4 216 181l8 -3l-44 -198h-486zM478 305q-28 0 -47.5 20t-19.5 47q0 29 19.5 48.5t47.5 19.5q27 0 47 -19.5t20 -48.5q0 -27 -20 -47t-47 -20z" />
    <glyph glyph-name="ldot" unicode="&#x140;" horiz-adv-x="329" 
d="M47 2q22 47 22 137v455q0 78 -45 129v2l145 53v-638q0 -97 23 -138v-2h-145v2zM284 305q-28 0 -47.5 20t-19.5 47q0 29 19.5 48.5t47.5 19.5q27 0 47 -19.5t20 -48.5q0 -27 -20 -47t-47 -20z" />
    <glyph glyph-name="Lslash" unicode="&#x141;" horiz-adv-x="594" 
d="M54 0v2q24 46 32 82t8 97v73l-71 -35v26l71 35v271q0 61 -8 97t-32 82v2h195v-2q-25 -46 -32.5 -81t-7.5 -98v-215l244 121v-26l-244 -121v-296l151 6q100 4 216 181l8 -3l-44 -198h-486z" />
    <glyph glyph-name="lslash" unicode="&#x142;" horiz-adv-x="258" 
d="M57 2q22 47 22 137v175l-70 -55v28l70 55v252q0 78 -45 129v2l145 53v-357l70 56v-28l-70 -56v-253q0 -97 23 -138v-2h-145v2z" />
    <glyph glyph-name="Nacute" unicode="&#x143;" horiz-adv-x="694" 
d="M109 627l4 -428q0 -67 13.5 -105.5t55.5 -91.5v-2h-154v2q37 51 49 90.5t12 106.5v392q-4 49 -20 77t-58 62v2h160l419 -569l-3 370q0 66 -12.5 105.5t-48.5 91.5v2h144v-2q-37 -53 -49 -92t-12 -105v-533l-36 -3zM472 959l52 -86l-241 -91l-6 10z" />
    <glyph glyph-name="nacute" unicode="&#x144;" horiz-adv-x="545" 
d="M196 0h-145v2q23 68 23 192v118q0 79 -45 130v2l141 53v-96l4 -1q76 92 161 92q68 0 104.5 -38.5t36.5 -106.5v-152q0 -75 4 -114.5t19 -78.5v-2h-145v2q22 71 22 192v130q0 47 -22.5 77t-69.5 30q-63 0 -110 -50v-186q0 -133 22 -193v-2zM339 749l73 -71l-198 -136l-8 8
z" />
    <glyph glyph-name="uni0145" unicode="&#x145;" horiz-adv-x="694" 
d="M109 627l4 -428q0 -67 13.5 -105.5t55.5 -91.5v-2h-154v2q37 51 49 90.5t12 106.5v392q-4 49 -20 77t-58 62v2h160l419 -569l-3 370q0 66 -12.5 105.5t-48.5 91.5v2h144v-2q-37 -53 -49 -92t-12 -105v-533l-36 -3zM289 -239q56 38 56 85q0 23 -42 65v1l75 50
q42 -28 42 -70q0 -39 -40 -77t-88 -59z" />
    <glyph glyph-name="uni0146" unicode="&#x146;" horiz-adv-x="545" 
d="M196 0h-145v2q23 68 23 192v118q0 79 -45 130v2l141 53v-96l4 -1q76 92 161 92q68 0 104.5 -38.5t36.5 -106.5v-152q0 -75 4 -114.5t19 -78.5v-2h-145v2q22 71 22 192v130q0 47 -22.5 77t-69.5 30q-63 0 -110 -50v-186q0 -133 22 -193v-2zM207 -239q56 38 56 85
q0 23 -42 65v1l75 50q42 -28 42 -70q0 -39 -40 -77t-88 -59z" />
    <glyph glyph-name="Ncaron" unicode="&#x147;" horiz-adv-x="694" 
d="M109 627l4 -428q0 -67 13.5 -105.5t55.5 -91.5v-2h-154v2q37 51 49 90.5t12 106.5v392q-4 49 -20 77t-58 62v2h160l419 -569l-3 370q0 66 -12.5 105.5t-48.5 91.5v2h144v-2q-37 -53 -49 -92t-12 -105v-533l-36 -3zM362 782l-153 153l9 10l147 -76l147 76l9 -10l-153 -153
h-6z" />
    <glyph glyph-name="ncaron" unicode="&#x148;" horiz-adv-x="545" 
d="M196 0h-145v2q23 68 23 192v118q0 79 -45 130v2l141 53v-96l4 -1q76 92 161 92q68 0 104.5 -38.5t36.5 -106.5v-152q0 -75 4 -114.5t19 -78.5v-2h-145v2q22 71 22 192v130q0 47 -22.5 77t-69.5 30q-63 0 -110 -50v-186q0 -133 22 -193v-2zM133 709l9 10l131 -87l131 87
l9 -10l-137 -169h-6z" />
    <glyph glyph-name="napostrophe" unicode="&#x149;" horiz-adv-x="545" 
d="M196 0h-145v2q23 68 23 192v118q0 79 -45 130v2l141 53v-96l4 -1q76 92 161 92q68 0 104.5 -38.5t36.5 -106.5v-152q0 -75 4 -114.5t19 -78.5v-2h-145v2q22 71 22 192v130q0 47 -22.5 77t-69.5 30q-63 0 -110 -50v-186q0 -133 22 -193v-2zM-45 511q52 50 52 102
q0 25 -45 77v2l79 63q45 -32 45 -82q0 -47 -39 -93.5t-87 -74.5z" />
    <glyph glyph-name="Eng" unicode="&#x14a;" horiz-adv-x="690" 
d="M472 -225q-71 0 -140 22l-23 165l8 3q69 -96 105.5 -133t75.5 -37q36 0 62.5 30t26.5 98v74h-16l-464 630l4 -428q0 -67 13.5 -105.5t55.5 -91.5v-2h-154v2q37 51 49 90.5t12 106.5v392q-4 49 -20 77t-58 62v2h160l417 -567l-1 368q0 66 -12 105t-49 92v2h144v-2
q-37 -53 -49 -92t-12 -105v-605q0 -77 -31.5 -115t-103.5 -38z" />
    <glyph glyph-name="eng" unicode="&#x14b;" horiz-adv-x="547" 
d="M311 -209q65 40 65 141v392q0 47 -22.5 77t-69.5 30q-63 0 -110 -50v-186q0 -133 22 -193v-2h-145v2q23 68 23 192v118q0 79 -45 130v2l141 53v-96l4 -1q76 92 161 92q68 0 105 -38.5t36 -106.5l-2 -345q0 -97 -45.5 -152.5t-115.5 -64.5z" />
    <glyph glyph-name="Omacron" unicode="&#x14c;" horiz-adv-x="814" 
d="M406 -15q-145 0 -260.5 112.5t-115.5 267.5t115.5 268.5t260.5 113.5q94 0 181 -50.5t142 -139.5t55 -192t-55 -191.5t-142 -138.5t-181 -50zM406 5q125 0 188 98t63 262q0 163 -63.5 262.5t-187.5 99.5t-186.5 -99.5t-62.5 -262.5q0 -162 62.5 -261t186.5 -99zM251 883
h313v-50h-313v50z" />
    <glyph glyph-name="omacron" unicode="&#x14d;" horiz-adv-x="563" 
d="M281 -15q-105 0 -180.5 75.5t-75.5 177.5q0 101 76.5 177.5t179.5 76.5q104 0 180.5 -76.5t76.5 -177.5q0 -102 -76 -177.5t-181 -75.5zM281 5q73 0 110 67t37 166q0 98 -37.5 166t-109.5 68q-71 0 -108.5 -68t-37.5 -166q0 -99 36.5 -166t109.5 -67zM140 645h283v-50
h-283v50z" />
    <glyph glyph-name="Obreve" unicode="&#x14e;" horiz-adv-x="814" 
d="M406 -15q-145 0 -260.5 112.5t-115.5 267.5t115.5 268.5t260.5 113.5q94 0 181 -50.5t142 -139.5t55 -192t-55 -191.5t-142 -138.5t-181 -50zM406 5q125 0 188 98t63 262q0 163 -63.5 262.5t-187.5 99.5t-186.5 -99.5t-62.5 -262.5q0 -162 62.5 -261t186.5 -99zM407 859
q100 0 126 85h10q0 -54 -33 -102t-103 -48q-48 0 -80.5 26.5t-43.5 58.5t-11 65h10q26 -85 125 -85z" />
    <glyph glyph-name="obreve" unicode="&#x14f;" horiz-adv-x="563" 
d="M281 -15q-105 0 -180.5 75.5t-75.5 177.5q0 101 76.5 177.5t179.5 76.5q104 0 180.5 -76.5t76.5 -177.5q0 -102 -76 -177.5t-181 -75.5zM281 5q73 0 110 67t37 166q0 98 -37.5 166t-109.5 68q-71 0 -108.5 -68t-37.5 -166q0 -99 36.5 -166t109.5 -67zM281 632
q84 0 104 72h10q0 -49 -28 -91t-88 -42t-86 41.5t-26 91.5h10q20 -72 104 -72z" />
    <glyph glyph-name="Ohungarumlaut" unicode="&#x150;" horiz-adv-x="814" 
d="M406 -15q-145 0 -260.5 112.5t-115.5 267.5t115.5 268.5t260.5 113.5q94 0 181 -50.5t142 -139.5t55 -192t-55 -191.5t-142 -138.5t-181 -50zM406 5q125 0 188 98t63 262q0 163 -63.5 262.5t-187.5 99.5t-186.5 -99.5t-62.5 -262.5q0 -162 62.5 -261t186.5 -99zM584 949
l58 -77l-180 -90l-9 10zM394 949l58 -77l-180 -90l-9 10z" />
    <glyph glyph-name="ohungarumlaut" unicode="&#x151;" horiz-adv-x="563" 
d="M281 -15q-105 0 -180.5 75.5t-75.5 177.5q0 101 76.5 177.5t179.5 76.5q104 0 180.5 -76.5t76.5 -177.5q0 -102 -76 -177.5t-181 -75.5zM281 5q73 0 110 67t37 166q0 98 -37.5 166t-109.5 68q-71 0 -108.5 -68t-37.5 -166q0 -99 36.5 -166t109.5 -67zM441 729l59 -64
l-169 -123l-9 10zM281 729l59 -64l-169 -123l-9 10z" />
    <glyph glyph-name="OE" unicode="&#x152;" horiz-adv-x="1061" 
d="M497 18q32 79 32 151v394q0 72 -33 153h-77q-262 0 -262 -361q0 -166 63 -248.5t198 -86.5zM1002 0h-592q-177 0 -278.5 97t-101.5 272q0 172 103 267.5t277 95.5h542l39 -178l-8 -3q-10 10 -53 60t-69.5 74t-46.5 25l-169 7v-338h86q17 0 36 12t31 25t30.5 36.5
t26.5 31.5h9v-226h-9q-5 5 -25.5 29t-31.5 36t-30.5 24t-36.5 12h-86v-344l178 7q38 1 81 32.5t70.5 64t63.5 82.5l8 -3z" />
    <glyph glyph-name="oe" unicode="&#x153;" horiz-adv-x="876" 
d="M851 112q-21 -59 -70 -93t-122 -34q-126 0 -184 96q-76 -96 -194 -96q-105 0 -180.5 74t-75.5 174t76 174.5t180 74.5q58 0 109.5 -27.5t86.5 -73.5q32 53 79.5 82t102.5 29q85 0 137.5 -61.5t48.5 -133.5h-313q-1 -5 -1 -15v-15q0 -95 47.5 -146t130.5 -51q90 0 136 46z
M281 3q74 0 113 67t39 163t-39.5 163.5t-112.5 67.5t-112 -67.5t-39 -163.5t39 -163t112 -67zM658 474q-50 0 -83 -44t-41 -117l209 5v11q0 145 -85 145z" />
    <glyph glyph-name="Racute" unicode="&#x154;" horiz-adv-x="646" 
d="M49 2q24 46 32 82t8 97v370q0 61 -8 97t-32 82v2h255q253 0 253 -175q0 -65 -36 -113.5t-109 -71.5l119 -233q31 -62 53.5 -87t62.5 -45v-7h-176l-180 353h-87v-172q0 -63 7.5 -98t32.5 -81v-2h-195v2zM282 712h-30q-29 0 -48 -1v-338h78q158 0 158 185q0 74 -35.5 114
t-122.5 40zM413 959l52 -86l-241 -91l-6 10z" />
    <glyph glyph-name="racute" unicode="&#x155;" horiz-adv-x="356" 
d="M51 0v2q23 68 23 192v118q0 79 -45 130v2l141 53v-122h4q32 38 47 55t48.5 39.5t63.5 22.5l-2 -122h-4q-13 11 -42.5 20.5t-46.5 9.5q-31 0 -64 -45v-160q0 -133 22 -193v-2h-145zM268 749l73 -71l-198 -136l-8 8z" />
    <glyph glyph-name="uni0156" unicode="&#x156;" horiz-adv-x="646" 
d="M49 2q24 46 32 82t8 97v370q0 61 -8 97t-32 82v2h255q253 0 253 -175q0 -65 -36 -113.5t-109 -71.5l119 -233q31 -62 53.5 -87t62.5 -45v-7h-176l-180 353h-87v-172q0 -63 7.5 -98t32.5 -81v-2h-195v2zM282 712h-30q-29 0 -48 -1v-338h78q158 0 158 185q0 74 -35.5 114
t-122.5 40zM270 -239q56 38 56 85q0 23 -42 65v1l75 50q42 -28 42 -70q0 -39 -40 -77t-88 -59z" />
    <glyph glyph-name="uni0157" unicode="&#x157;" horiz-adv-x="356" 
d="M51 0v2q23 68 23 192v118q0 79 -45 130v2l141 53v-122h4q32 38 47 55t48.5 39.5t63.5 22.5l-2 -122h-4q-13 11 -42.5 20.5t-46.5 9.5q-31 0 -64 -45v-160q0 -133 22 -193v-2h-145zM44 -238q56 38 56 85q0 23 -42 65v1l75 50q42 -28 42 -70q0 -39 -40 -77t-88 -59z" />
    <glyph glyph-name="Rcaron" unicode="&#x158;" horiz-adv-x="646" 
d="M49 2q24 46 32 82t8 97v370q0 61 -8 97t-32 82v2h255q253 0 253 -175q0 -65 -36 -113.5t-109 -71.5l119 -233q31 -62 53.5 -87t62.5 -45v-7h-176l-180 353h-87v-172q0 -63 7.5 -98t32.5 -81v-2h-195v2zM282 712h-30q-29 0 -48 -1v-338h78q158 0 158 185q0 74 -35.5 114
t-122.5 40zM303 782l-153 153l9 10l147 -76l147 76l9 -10l-153 -153h-6z" />
    <glyph glyph-name="rcaron" unicode="&#x159;" horiz-adv-x="356" 
d="M51 0v2q23 68 23 192v118q0 79 -45 130v2l141 53v-122h4q32 38 47 55t48.5 39.5t63.5 22.5l-2 -122h-4q-13 11 -42.5 20.5t-46.5 9.5q-31 0 -64 -45v-160q0 -133 22 -193v-2h-145zM72 709l9 10l131 -87l131 87l9 -10l-137 -169h-6z" />
    <glyph glyph-name="Sacute" unicode="&#x15a;" horiz-adv-x="553" 
d="M474 537l-9 -3q-50 106 -100 149.5t-107 43.5q-51 0 -80 -30.5t-29 -81.5q0 -27 10.5 -51t23.5 -40t40.5 -34t45 -27t53.5 -26q38 -19 60 -30.5t52.5 -34t47 -44.5t29 -56t12.5 -74q0 -106 -74 -159.5t-188 -53.5q-101 0 -206 39l-20 185l8 3q57 -107 117 -157t129 -50
q65 0 100 39.5t35 97.5q0 65 -40.5 106t-114.5 77q-31 15 -45 22t-41 23t-40.5 27t-32.5 29.5t-27.5 36t-15.5 42t-7 51.5q0 97 66 144t165 47q83 0 163 -29zM386 959l52 -86l-241 -91l-6 10z" />
    <glyph glyph-name="sacute" unicode="&#x15b;" horiz-adv-x="399" 
d="M346 363l-6 -2q-66 113 -155 113q-38 0 -60 -21t-22 -53q0 -27 21 -48.5t43 -32t65 -27.5q66 -28 104 -63.5t38 -99.5q0 -71 -52 -107.5t-135 -36.5q-72 0 -147 26l-10 128l6 2q38 -73 77 -105.5t87 -32.5q46 0 69 25.5t23 60.5q0 36 -25 58.5t-81 46.5q-28 12 -35.5 16
t-32 16.5t-33.5 22.5t-23 26.5t-19 36.5t-5 44q0 70 50 103t124 33q75 0 124 -20zM264 749l73 -71l-198 -136l-8 8z" />
    <glyph glyph-name="Scircumflex" unicode="&#x15c;" horiz-adv-x="553" 
d="M474 537l-9 -3q-50 106 -100 149.5t-107 43.5q-51 0 -80 -30.5t-29 -81.5q0 -27 10.5 -51t23.5 -40t40.5 -34t45 -27t53.5 -26q38 -19 60 -30.5t52.5 -34t47 -44.5t29 -56t12.5 -74q0 -106 -74 -159.5t-188 -53.5q-101 0 -206 39l-20 185l8 3q57 -107 117 -157t129 -50
q65 0 100 39.5t35 97.5q0 65 -40.5 106t-114.5 77q-31 15 -45 22t-41 23t-40.5 27t-32.5 29.5t-27.5 36t-15.5 42t-7 51.5q0 97 66 144t165 47q83 0 163 -29zM279 858l-147 -76l-9 10l153 153h6l153 -153l-9 -10z" />
    <glyph glyph-name="scircumflex" unicode="&#x15d;" horiz-adv-x="399" 
d="M346 363l-6 -2q-66 113 -155 113q-38 0 -60 -21t-22 -53q0 -27 21 -48.5t43 -32t65 -27.5q66 -28 104 -63.5t38 -99.5q0 -71 -52 -107.5t-135 -36.5q-72 0 -147 26l-10 128l6 2q38 -73 77 -105.5t87 -32.5q46 0 69 25.5t23 60.5q0 36 -25 58.5t-81 46.5q-28 12 -35.5 16
t-32 16.5t-33.5 22.5t-23 26.5t-19 36.5t-5 44q0 70 50 103t124 33q75 0 124 -20zM198 627l-131 -87l-9 10l137 169h6l137 -169l-9 -10z" />
    <glyph glyph-name="uni015E" unicode="&#x15e;" horiz-adv-x="553" 
d="M194 -246q82 35 82 83q0 8 -2.5 14.5t-6 11t-10 8.5t-10.5 6t-12.5 4t-12 2.5t-12 1.5t-9.5 1l-2 2l59 97q-52 0 -101 10q-58 12 -102 29l-20 185l8 3q57 -107 117 -157t129 -50q65 0 100 39.5t35 97.5q0 65 -40.5 106t-114.5 77q-31 15 -45 22t-41 23t-40.5 27
t-32.5 29.5t-27.5 36t-15.5 42t-7 51.5q0 97 66 144t165 47q83 0 163 -29l20 -181l-9 -3q-50 106 -100 149.5t-107 43.5q-51 0 -80 -30.5t-29 -81.5q0 -27 10.5 -51t23.5 -40t40.5 -34t45 -27t53.5 -26q38 -19 60 -30.5t52.5 -34t47 -44.5t29 -56t12.5 -74
q0 -81 -43.5 -131.5t-118.5 -69.5q-38 -10 -75 -11l-29 -46q88 -19 88 -83q0 -81 -148 -112z" />
    <glyph glyph-name="uni015F" unicode="&#x15f;" horiz-adv-x="399" 
d="M111 -246q82 35 82 83q0 8 -2.5 14.5t-6 11t-10 8.5t-10.5 6t-12.5 4t-12 2.5t-12 1.5t-9.5 1l-2 2l59 97q-39 2 -65 8q-40 8 -70 18l-10 128l6 2q38 -73 77 -105.5t87 -32.5q46 0 69 25.5t23 60.5q0 36 -25 58.5t-81 46.5q-28 12 -35.5 16t-32 16.5t-33.5 22.5t-23 26.5
t-19 36.5t-5 44q0 70 50 103t124 33q75 0 124 -20l10 -109l-6 -2q-66 113 -155 113q-38 0 -60 -21t-22 -53q0 -27 21 -48.5t43 -32t65 -27.5q66 -28 104 -63.5t38 -99.5q0 -53 -30.5 -88t-83.5 -47q-27 -8 -57 -9l-29 -45q88 -19 88 -83q0 -81 -148 -112z" />
    <glyph glyph-name="Scaron" unicode="&#x160;" horiz-adv-x="553" 
d="M474 537l-9 -3q-50 106 -100 149.5t-107 43.5q-51 0 -80 -30.5t-29 -81.5q0 -27 10.5 -51t23.5 -40t40.5 -34t45 -27t53.5 -26q38 -19 60 -30.5t52.5 -34t47 -44.5t29 -56t12.5 -74q0 -106 -74 -159.5t-188 -53.5q-101 0 -206 39l-20 185l8 3q57 -107 117 -157t129 -50
q65 0 100 39.5t35 97.5q0 65 -40.5 106t-114.5 77q-31 15 -45 22t-41 23t-40.5 27t-32.5 29.5t-27.5 36t-15.5 42t-7 51.5q0 97 66 144t165 47q83 0 163 -29zM276 782l-153 153l9 10l147 -76l147 76l9 -10l-153 -153h-6z" />
    <glyph glyph-name="scaron" unicode="&#x161;" horiz-adv-x="399" 
d="M346 363l-6 -2q-66 113 -155 113q-38 0 -60 -21t-22 -53q0 -27 21 -48.5t43 -32t65 -27.5q66 -28 104 -63.5t38 -99.5q0 -71 -52 -107.5t-135 -36.5q-72 0 -147 26l-10 128l6 2q38 -73 77 -105.5t87 -32.5q46 0 69 25.5t23 60.5q0 36 -25 58.5t-81 46.5q-28 12 -35.5 16
t-32 16.5t-33.5 22.5t-23 26.5t-19 36.5t-5 44q0 70 50 103t124 33q75 0 124 -20zM58 709l9 10l131 -87l131 87l9 -10l-137 -169h-6z" />
    <glyph glyph-name="Tcommaaccent" unicode="&#x162;" horiz-adv-x="715" 
d="M455 0h-195v2q24 46 32 82t8 97v534l-109 -4q-19 -1 -48.5 -31t-52.5 -61t-55 -77q-9 -13 -13 -19l-8 3l38 206h611l38 -206l-8 -3q-10 13 -33 46t-37.5 52t-34 42.5t-35.5 35t-29 12.5l-109 4v-534q0 -63 7.5 -98t32.5 -81v-2zM281 -239q56 38 56 85q0 23 -42 65v1
l75 50q42 -28 42 -70q0 -39 -40 -77t-88 -59z" />
    <glyph glyph-name="tcommaaccent" unicode="&#x163;" horiz-adv-x="326" 
d="M184 -15q-112 0 -112 121v353h-54v6l145 125h10v-113h129v-18h-129v-350q0 -74 70 -74q38 0 66 17l3 -4q-45 -63 -128 -63zM94 -239q56 38 56 85q0 23 -42 65v1l75 50q42 -28 42 -70q0 -39 -40 -77t-88 -59z" />
    <glyph glyph-name="Tcaron" unicode="&#x164;" horiz-adv-x="715" 
d="M455 0h-195v2q24 46 32 82t8 97v534l-109 -4q-19 -1 -48.5 -31t-52.5 -61t-55 -77q-9 -13 -13 -19l-8 3l38 206h611l38 -206l-8 -3q-10 13 -33 46t-37.5 52t-34 42.5t-35.5 35t-29 12.5l-109 4v-534q0 -63 7.5 -98t32.5 -81v-2zM354 782l-153 153l9 10l147 -76l147 76
l9 -10l-153 -153h-6z" />
    <glyph glyph-name="tcaron" unicode="&#x165;" horiz-adv-x="326" 
d="M184 -15q-112 0 -112 121v353h-54v6l145 125h10v-113h129v-18h-129v-350q0 -74 70 -74q38 0 66 17l3 -4q-45 -63 -128 -63zM270 775h90l-103 -203l-10 2z" />
    <glyph glyph-name="Tbar" unicode="&#x166;" horiz-adv-x="715" 
d="M455 0h-195v2q24 46 32 82t8 97v176h-170v20h170v338l-109 -4q-19 -1 -48.5 -31t-52.5 -61t-55 -77q-9 -13 -13 -19l-8 3l38 206h611l38 -206l-8 -3q-10 13 -33 46t-37.5 52t-34 42.5t-35.5 35t-29 12.5l-109 4v-338h170v-20h-170v-176q0 -63 7.5 -98t32.5 -81v-2z" />
    <glyph glyph-name="tbar" unicode="&#x167;" horiz-adv-x="326" 
d="M184 -15q-112 0 -112 121v202h-54v18h54v133h-54v6l145 125h10v-113h129v-18h-129v-133h130v-18h-130v-199q0 -74 70 -74q38 0 66 17l3 -4q-45 -63 -128 -63z" />
    <glyph glyph-name="Utilde" unicode="&#x168;" horiz-adv-x="696" 
d="M358 -15q-120 0 -196.5 62.5t-76.5 190.5v313q0 63 -7.5 98t-32.5 81v2h195v-2q-40 -76 -40 -179v-310q0 -231 186 -231q104 0 153 68t49 172v283q0 68 -14 107t-58 90v2h162l5 -2q-44 -51 -58 -90t-14 -107v-282q0 -119 -59.5 -192.5t-193.5 -73.5zM308 905
q31 0 85.5 -20t86.5 -20q27 0 41 11t25 43l10 -2q-1 -26 -4.5 -43.5t-12 -39t-27.5 -32.5t-48 -11q-31 0 -85.5 20t-86.5 20q-27 0 -41 -11t-25 -43l-10 2q1 26 4.5 43.5t12 39t27.5 32.5t48 11z" />
    <glyph glyph-name="utilde" unicode="&#x169;" horiz-adv-x="524" 
d="M349 112q-32 -59 -68.5 -93t-92.5 -34q-63 0 -96 45.5t-33 124.5v213q0 68 -42 107v2h142v-306q0 -106 88 -106q64 0 97 63v240q0 71 -44 107v2h144v-307q0 -75 9.5 -101.5t35.5 -46.5v-2l-140 -32v124zM188 680q20 0 70.5 -15.5t75.5 -15.5q44 0 59 43l10 -1
q-2 -26 -8 -49t-26 -45t-50 -22q-21 0 -72 16t-76 16q-45 0 -57 -43l-11 1q2 26 8 48.5t26 44.5t51 22z" />
    <glyph glyph-name="Umacron" unicode="&#x16a;" horiz-adv-x="696" 
d="M358 -15q-120 0 -196.5 62.5t-76.5 190.5v313q0 63 -7.5 98t-32.5 81v2h195v-2q-40 -76 -40 -179v-310q0 -231 186 -231q104 0 153 68t49 172v283q0 68 -14 107t-58 90v2h162l5 -2q-44 -51 -58 -90t-14 -107v-282q0 -119 -59.5 -192.5t-193.5 -73.5zM230 883h313v-50
h-313v50z" />
    <glyph glyph-name="umacron" unicode="&#x16b;" horiz-adv-x="524" 
d="M349 112q-32 -59 -68.5 -93t-92.5 -34q-63 0 -96 45.5t-33 124.5v213q0 68 -42 107v2h142v-306q0 -106 88 -106q64 0 97 63v240q0 71 -44 107v2h144v-307q0 -75 9.5 -101.5t35.5 -46.5v-2l-140 -32v124zM112 645h283v-50h-283v50z" />
    <glyph glyph-name="Ubreve" unicode="&#x16c;" horiz-adv-x="696" 
d="M358 -15q-120 0 -196.5 62.5t-76.5 190.5v313q0 63 -7.5 98t-32.5 81v2h195v-2q-40 -76 -40 -179v-310q0 -231 186 -231q104 0 153 68t49 172v283q0 68 -14 107t-58 90v2h162l5 -2q-44 -51 -58 -90t-14 -107v-282q0 -119 -59.5 -192.5t-193.5 -73.5zM396 859
q100 0 126 85h10q0 -54 -33 -102t-103 -48q-48 0 -80.5 26.5t-43.5 58.5t-11 65h10q26 -85 125 -85z" />
    <glyph glyph-name="ubreve" unicode="&#x16d;" horiz-adv-x="524" 
d="M349 112q-32 -59 -68.5 -93t-92.5 -34q-63 0 -96 45.5t-33 124.5v213q0 68 -42 107v2h142v-306q0 -106 88 -106q64 0 97 63v240q0 71 -44 107v2h144v-307q0 -75 9.5 -101.5t35.5 -46.5v-2l-140 -32v124zM253 632q84 0 104 72h10q0 -49 -28 -91t-88 -42t-86 41.5t-26 91.5
h10q20 -72 104 -72z" />
    <glyph glyph-name="Uring" unicode="&#x16e;" horiz-adv-x="696" 
d="M358 -15q-120 0 -196.5 62.5t-76.5 190.5v313q0 63 -7.5 98t-32.5 81v2h195v-2q-40 -76 -40 -179v-310q0 -231 186 -231q104 0 153 68t49 172v283q0 68 -14 107t-58 90v2h162l5 -2q-44 -51 -58 -90t-14 -107v-282q0 -119 -59.5 -192.5t-193.5 -73.5zM296 857
q0 38 25.5 62t64.5 24t64.5 -24t25.5 -62t-25.5 -61.5t-64.5 -23.5t-64.5 23.5t-25.5 61.5zM335 857q0 -31 13.5 -48.5t37.5 -17.5t37.5 17.5t13.5 48.5t-13.5 49.5t-37.5 18.5t-37.5 -18.5t-13.5 -49.5z" />
    <glyph glyph-name="uring" unicode="&#x16f;" horiz-adv-x="524" 
d="M349 112q-32 -59 -68.5 -93t-92.5 -34q-63 0 -96 45.5t-33 124.5v213q0 68 -42 107v2h142v-306q0 -106 88 -106q64 0 97 63v240q0 71 -44 107v2h144v-307q0 -75 9.5 -101.5t35.5 -46.5v-2l-140 -32v124zM163 653q0 38 25.5 62t64.5 24t64.5 -24t25.5 -62t-25.5 -61.5
t-64.5 -23.5t-64.5 23.5t-25.5 61.5zM202 653q0 -31 13.5 -48.5t37.5 -17.5t37.5 17.5t13.5 48.5t-13.5 49.5t-37.5 18.5t-37.5 -18.5t-13.5 -49.5z" />
    <glyph glyph-name="Uhungarumlaut" unicode="&#x170;" horiz-adv-x="696" 
d="M358 -15q-120 0 -196.5 62.5t-76.5 190.5v313q0 63 -7.5 98t-32.5 81v2h195v-2q-40 -76 -40 -179v-310q0 -231 186 -231q104 0 153 68t49 172v283q0 68 -14 107t-58 90v2h162l5 -2q-44 -51 -58 -90t-14 -107v-282q0 -119 -59.5 -192.5t-193.5 -73.5zM563 949l58 -77
l-180 -90l-9 10zM373 949l58 -77l-180 -90l-9 10z" />
    <glyph glyph-name="uhungarumlaut" unicode="&#x171;" horiz-adv-x="524" 
d="M349 112q-32 -59 -68.5 -93t-92.5 -34q-63 0 -96 45.5t-33 124.5v213q0 68 -42 107v2h142v-306q0 -106 88 -106q64 0 97 63v240q0 71 -44 107v2h144v-307q0 -75 9.5 -101.5t35.5 -46.5v-2l-140 -32v124zM413 729l59 -64l-169 -123l-9 10zM253 729l59 -64l-169 -123l-9 10
z" />
    <glyph glyph-name="Uogonek" unicode="&#x172;" horiz-adv-x="696" 
d="M374 -248q-42 0 -67 23.5t-25 60.5q0 79 127 152q-23 -3 -51 -3q-120 0 -196.5 62.5t-76.5 190.5v313q0 63 -7.5 98t-32.5 81v2h195v-2q-40 -76 -40 -179v-310q0 -231 186 -231q104 0 153 68t49 172v283q0 68 -14 107t-58 90v2h162l5 -2q-44 -51 -58 -90t-14 -107v-282
q0 -186 -133 -245q-51 -25 -74 -44q-43 -37 -43 -88q0 -59 55 -59q44 0 82 45l9 -7q-54 -101 -133 -101z" />
    <glyph glyph-name="uogonek" unicode="&#x173;" horiz-adv-x="524" 
d="M310 -248q-42 0 -67 23t-25 61q0 44 32.5 82t98.5 82v112q-32 -59 -68.5 -93t-92.5 -34q-63 0 -96 45.5t-33 124.5v213q0 68 -42 107v2h142v-306q0 -106 88 -106q64 0 97 63v240q0 71 -44 107v2h144v-307q0 -75 9.5 -101.5t35.5 -46.5v-2q-4 -1 -30 -6t-42 -9.5
t-29 -10.5q-38 -18 -64.5 -50t-26.5 -71q0 -58 57 -58q42 0 80 45l9 -7q-54 -101 -133 -101z" />
    <glyph glyph-name="Wcircumflex" unicode="&#x174;" horiz-adv-x="995" 
d="M276 -8l-188 577q-35 107 -85 161v2h209v-2q-36 -59 -2 -166l129 -405l155 389l-8 21q-41 114 -85 161v2h209v-2q-15 -26 -17.5 -65.5t15.5 -100.5l140 -397l114 348q46 142 -2 215v2h132v-2q-61 -63 -98 -182l-181 -556h-20l-189 527l-208 -527h-20zM517 858l-147 -76
l-9 10l153 153h6l153 -153l-9 -10z" />
    <glyph glyph-name="wcircumflex" unicode="&#x175;" horiz-adv-x="668" 
d="M65 359q-27 83 -60 116v2h171v-2q-24 -42 -2 -109l71 -217l74 204l-2 6q-27 78 -63 116v2h170v-2q-24 -42 0 -109l72 -217l69 189q29 81 -6 137v2h104v-2q-47 -51 -73 -123l-130 -362h-16l-116 337l-121 -337h-16zM348 627l-131 -87l-9 10l137 169h6l137 -169l-9 -10z
" />
    <glyph glyph-name="Ycircumflex" unicode="&#x176;" horiz-adv-x="601" 
d="M202 2q24 38 32 68t8 81v182l-145 259q-57 100 -110 138v2h227v-2q-20 -17 -18 -52.5t23 -73.5l131 -241l99 173q63 112 16 194v2h149v-2q-39 -37 -64 -71t-64 -101l-129 -224v-183q0 -52 7.5 -81t32.5 -68v-2h-195v2zM345 858l-147 -76l-9 10l153 153h6l153 -153l-9 -10
z" />
    <glyph glyph-name="ycircumflex" unicode="&#x177;" horiz-adv-x="449" 
d="M39 -129q130 0 168 105l1 4l-142 378q-29 79 -61 117v2h168v-2q-27 -46 4 -128l84 -225l85 227q12 45 6.5 75t-21.5 51v2h113v-2q-48 -51 -74 -123l-155 -401q-38 -96 -78 -132.5t-96 -43.5zM249 627l-131 -87l-9 10l137 169h6l137 -169l-9 -10z" />
    <glyph glyph-name="Ydieresis" unicode="&#x178;" horiz-adv-x="601" 
d="M202 2q24 38 32 68t8 81v182l-145 259q-57 100 -110 138v2h227v-2q-20 -17 -18 -52.5t23 -73.5l131 -241l99 173q63 112 16 194v2h149v-2q-39 -37 -64 -71t-64 -101l-129 -224v-183q0 -52 7.5 -81t32.5 -68v-2h-195v2zM525 868q0 -25 -17.5 -42.5t-42.5 -17.5t-42.5 17.5
t-17.5 42.5t17.5 43t42.5 18t42.5 -18t17.5 -43zM285 868q0 -25 -17.5 -42.5t-42.5 -17.5t-42.5 17.5t-17.5 42.5t17.5 43t42.5 18t42.5 -18t17.5 -43z" />
    <glyph glyph-name="Zacute" unicode="&#x179;" horiz-adv-x="623" 
d="M20 0v11l439 705l-130 -4q-53 -2 -97.5 -17.5t-78 -43t-56 -53t-46.5 -61.5l-8 3l47 192h504v-11l-438 -706l160 5q70 2 127.5 32.5t91 67.5t65.5 91l8 -3l-49 -208h-539zM441 959l52 -86l-241 -91l-6 10z" />
    <glyph glyph-name="zacute" unicode="&#x17a;" horiz-adv-x="447" 
d="M15 0v7l282 453l-120 -4q-8 0 -16.5 -2t-17.5 -6.5t-16 -8.5t-17 -12.5t-15.5 -13t-16.5 -15.5t-15 -14.5t-15 -15.5t-13 -14l-5 2l33 121h353v-8l-280 -452l131 3q41 2 77 31t78 81l5 -2l-35 -130h-377zM303 749l73 -71l-198 -136l-8 8z" />
    <glyph glyph-name="Zdotaccent" unicode="&#x17b;" horiz-adv-x="623" 
d="M20 0v11l439 705l-130 -4q-53 -2 -97.5 -17.5t-78 -43t-56 -53t-46.5 -61.5l-8 3l47 192h504v-11l-438 -706l160 5q70 2 127.5 32.5t91 67.5t65.5 91l8 -3l-49 -208h-539zM394 868q0 -25 -17.5 -42.5t-42.5 -17.5t-42.5 17.5t-17.5 42.5t17.5 43t42.5 18t42.5 -18
t17.5 -43z" />
    <glyph glyph-name="zdotaccent" unicode="&#x17c;" horiz-adv-x="447" 
d="M15 0v7l282 453l-120 -4q-8 0 -16.5 -2t-17.5 -6.5t-16 -8.5t-17 -12.5t-15.5 -13t-16.5 -15.5t-15 -14.5t-15 -15.5t-13 -14l-5 2l33 121h353v-8l-280 -452l131 3q41 2 77 31t78 81l5 -2l-35 -130h-377zM297 658q0 -25 -17.5 -42.5t-42.5 -17.5t-42.5 17.5t-17.5 42.5
t17.5 43t42.5 18t42.5 -18t17.5 -43z" />
    <glyph glyph-name="Zcaron" unicode="&#x17d;" horiz-adv-x="623" 
d="M20 0v11l439 705l-130 -4q-53 -2 -97.5 -17.5t-78 -43t-56 -53t-46.5 -61.5l-8 3l47 192h504v-11l-438 -706l160 5q70 2 127.5 32.5t91 67.5t65.5 91l8 -3l-49 -208h-539zM331 782l-153 153l9 10l147 -76l147 76l9 -10l-153 -153h-6z" />
    <glyph glyph-name="zcaron" unicode="&#x17e;" horiz-adv-x="447" 
d="M15 0v7l282 453l-120 -4q-8 0 -16.5 -2t-17.5 -6.5t-16 -8.5t-17 -12.5t-15.5 -13t-16.5 -15.5t-15 -14.5t-15 -15.5t-13 -14l-5 2l33 121h353v-8l-280 -452l131 3q41 2 77 31t78 81l5 -2l-35 -130h-377zM97 709l9 10l131 -87l131 87l9 -10l-137 -169h-6z" />
    <glyph glyph-name="uni0192" unicode="&#x192;" horiz-adv-x="579" 
d="M45 -190q-54 0 -78 14l-17 131l8 2q30 -59 55 -93t50 -34q27 0 49 58.5t60 232.5l54 246h-82l5 20h81l14 62q32 150 95.5 224t139.5 74q48 0 72 -14l8 -141l-8 -2q-27 64 -49.5 100.5t-44.5 36.5q-25 0 -46 -50.5t-51 -185.5l-24 -104h109l-4 -20h-109l-42 -183
q-86 -374 -245 -374z" />
    <glyph glyph-name="Aringacute" unicode="&#x1fa;" horiz-adv-x="636" 
d="M270 585l-110 -289h219zM133 0h-135v2q33 35 51.5 70.5t43.5 101.5l215 566h20l219 -577q41 -111 91 -161v-2h-199v2q14 19 11.5 65.5t-22.5 100.5l-41 108h-235l-21 -56q-52 -135 2 -218v-2zM228 867q0 38 25.5 62t64.5 24t64.5 -24t25.5 -62t-25.5 -61.5t-64.5 -23.5
t-64.5 23.5t-25.5 61.5zM267 867q0 -31 13.5 -48.5t37.5 -17.5t37.5 17.5t13.5 48.5t-13.5 49.5t-37.5 18.5t-37.5 -18.5t-13.5 -49.5zM425 1139l52 -86l-241 -91l-6 10z" />
    <glyph glyph-name="aringacute" unicode="&#x1fb;" horiz-adv-x="472" 
d="M195 39q51 0 82 29v152q-155 -35 -155 -117q0 -30 19 -47t54 -17zM362 -12q-70 0 -83 63q-58 -66 -144 -66q-47 0 -77 22t-30 63q0 47 42 84t94.5 55.5t112.5 27.5v109q0 42 -21 64t-71 22q-78 0 -133 -45l-5 6q69 99 199 99q69 0 100 -33.5t31 -85.5v-285q0 -44 39 -44
q25 0 49 19l2 -2q-37 -73 -105 -73zM126 653q0 38 25.5 62t64.5 24t64.5 -24t25.5 -62t-25.5 -61.5t-64.5 -23.5t-64.5 23.5t-25.5 61.5zM165 653q0 -31 13.5 -48.5t37.5 -17.5t37.5 17.5t13.5 48.5t-13.5 49.5t-37.5 18.5t-37.5 -18.5t-13.5 -49.5zM323 939l52 -86
l-241 -91l-6 10z" />
    <glyph glyph-name="AEacute" unicode="&#x1fc;" horiz-adv-x="1010" 
d="M478 563q0 61 -15 103l-212 -370h227v267zM167 0h-140v2q28 24 51.5 53.5t35.5 49t42 70.5l295 516q-10 19 -32 39v2h482l39 -178l-8 -3q-10 10 -53 60t-69.5 74t-46.5 25l-169 7v-338h86q17 0 36 12t31 25t30.5 36.5t26.5 31.5h9v-226h-9q-5 5 -25.5 29t-31.5 36
t-30.5 24t-36.5 12h-86v-344l178 7q38 1 81 32.5t70.5 64t63.5 82.5l8 -3l-44 -198h-512v2q39 90 39 167v107h-239l-43 -76q-65 -111 -29 -198v-2zM726 959l52 -86l-241 -91l-6 10z" />
    <glyph glyph-name="aeacute" unicode="&#x1fd;" horiz-adv-x="714" 
d="M500 -15q-130 0 -189 103q-60 -103 -171 -103q-50 0 -81 22t-31 63q0 47 42 84t94.5 55.5t112.5 27.5v109q0 42 -21 64t-71 22q-78 0 -133 -45l-5 6q69 99 199 99q87 0 113 -61q63 61 142 61q83 0 134.5 -62t47.5 -133h-307q-1 -5 -1 -15v-15q0 -95 47.5 -146t129.5 -51
q89 0 131 46l6 -4q-19 -59 -67.5 -93t-121.5 -34zM500 474q-48 0 -81 -44t-41 -117l203 5v11q0 145 -81 145zM195 39q71 0 109 60q-26 51 -27 121q-155 -35 -155 -117q0 -30 19 -47t54 -17zM438 749l73 -71l-198 -136l-8 8z" />
    <glyph glyph-name="Oslashacute" unicode="&#x1fe;" horiz-adv-x="814" 
d="M157 365q0 -167 63 -262l358 545q-62 79 -172 79q-124 0 -186.5 -99.5t-62.5 -262.5zM406 5q125 0 188 98t63 262q0 166 -64 263l-358 -545q64 -78 171 -78zM406 -15q-102 0 -196 61l-49 -75h-28l58 88q-73 54 -117 134.5t-44 171.5q0 155 115.5 268.5t260.5 113.5
q103 0 197 -61l50 76h28l-59 -90q74 -55 118 -135t44 -172q0 -103 -55 -191.5t-142 -138.5t-181 -50zM514 959l52 -86l-241 -91l-6 10z" />
    <glyph glyph-name="oslashacute" unicode="&#x1ff;" horiz-adv-x="563" 
d="M281 -15q-73 0 -135 38l-62 -90h-27l71 103q-49 36 -76.5 89t-26.5 113q0 101 76.5 177.5t179.5 76.5q70 0 134 -40l63 92h27l-72 -104q49 -37 77 -90t28 -112q0 -102 -76 -177.5t-181 -75.5zM281 5q73 0 110 67t37 166q0 86 -30 151l-223 -323q38 -61 106 -61zM135 238
q0 -88 28 -151l223 323q-38 62 -105 62q-71 0 -108.5 -68t-37.5 -166zM347 749l73 -71l-198 -136l-8 8z" />
    <glyph glyph-name="uni0218" unicode="&#x218;" horiz-adv-x="553" 
d="M474 537l-9 -3q-50 106 -100 149.5t-107 43.5q-51 0 -80 -30.5t-29 -81.5q0 -27 10.5 -51t23.5 -40t40.5 -34t45 -27t53.5 -26q38 -19 60 -30.5t52.5 -34t47 -44.5t29 -56t12.5 -74q0 -106 -74 -159.5t-188 -53.5q-101 0 -206 39l-20 185l8 3q57 -107 117 -157t129 -50
q65 0 100 39.5t35 97.5q0 65 -40.5 106t-114.5 77q-31 15 -45 22t-41 23t-40.5 27t-32.5 29.5t-27.5 36t-15.5 42t-7 51.5q0 97 66 144t165 47q83 0 163 -29zM213 -239q56 38 56 85q0 23 -42 65v1l75 50q42 -28 42 -70q0 -39 -40 -77t-88 -59z" />
    <glyph glyph-name="uni0219" unicode="&#x219;" horiz-adv-x="399" 
d="M346 363l-6 -2q-66 113 -155 113q-38 0 -60 -21t-22 -53q0 -27 21 -48.5t43 -32t65 -27.5q66 -28 104 -63.5t38 -99.5q0 -71 -52 -107.5t-135 -36.5q-72 0 -147 26l-10 128l6 2q38 -73 77 -105.5t87 -32.5q46 0 69 25.5t23 60.5q0 36 -25 58.5t-81 46.5q-28 12 -35.5 16
t-32 16.5t-33.5 22.5t-23 26.5t-19 36.5t-5 44q0 70 50 103t124 33q75 0 124 -20zM122 -239q56 38 56 85q0 23 -42 65v1l75 50q42 -28 42 -70q0 -39 -40 -77t-88 -59z" />
    <glyph glyph-name="uni021A" unicode="&#x21a;" horiz-adv-x="715" 
d="M455 0h-195v2q24 46 32 82t8 97v534l-109 -4q-19 -1 -48.5 -31t-52.5 -61t-55 -77q-9 -13 -13 -19l-8 3l38 206h611l38 -206l-8 -3q-10 13 -33 46t-37.5 52t-34 42.5t-35.5 35t-29 12.5l-109 4v-534q0 -63 7.5 -98t32.5 -81v-2zM281 -239q56 38 56 85q0 23 -42 65v1
l75 50q42 -28 42 -70q0 -39 -40 -77t-88 -59z" />
    <glyph glyph-name="uni021B" unicode="&#x21b;" horiz-adv-x="326" 
d="M184 -15q-112 0 -112 121v353h-54v6l145 125h10v-113h129v-18h-129v-350q0 -74 70 -74q38 0 66 17l3 -4q-45 -63 -128 -63zM94 -239q56 38 56 85q0 23 -42 65v1l75 50q42 -28 42 -70q0 -39 -40 -77t-88 -59z" />
    <glyph glyph-name="uni0237" unicode="&#x237;" horiz-adv-x="245" 
d="M9 -237q65 40 65 141v404q0 78 -45 129v7l145 53l-2 -523q0 -97 -45.5 -152.5t-115.5 -64.5z" />
    <glyph glyph-name="circumflex" unicode="&#x2c6;" 
d="M150 627l-131 -87l-9 10l137 169h6l137 -169l-9 -10z" />
    <glyph glyph-name="caron" unicode="&#x2c7;" 
d="M-65 709l9 10l131 -87l131 87l9 -10l-137 -169h-6z" />
    <glyph glyph-name="breve" unicode="&#x2d8;" 
d="M150 632q84 0 104 72h10q0 -49 -28 -91t-88 -42t-86 41.5t-26 91.5h10q20 -72 104 -72z" />
    <glyph glyph-name="dotaccent" unicode="&#x2d9;" 
d="M210 658q0 -25 -17.5 -42.5t-42.5 -17.5t-42.5 17.5t-17.5 42.5t17.5 43t42.5 18t42.5 -18t17.5 -43z" />
    <glyph glyph-name="ring" unicode="&#x2da;" 
d="M60 653q0 38 25.5 62t64.5 24t64.5 -24t25.5 -62t-25.5 -61.5t-64.5 -23.5t-64.5 23.5t-25.5 61.5zM99 653q0 -31 13.5 -48.5t37.5 -17.5t37.5 17.5t13.5 48.5t-13.5 49.5t-37.5 18.5t-37.5 -18.5t-13.5 -49.5z" />
    <glyph glyph-name="ogonek" unicode="&#x2db;" 
d="M198 1q-83 -66 -83 -127q0 -27 14 -43t41 -16q44 0 82 45l9 -7q-54 -101 -133 -101q-42 0 -67 23.5t-25 60.5q0 42 32 77.5t100 87.5h30z" />
    <glyph glyph-name="tilde" unicode="&#x2dc;" 
d="M85 680q20 0 70.5 -15.5t75.5 -15.5q44 0 59 43l10 -1q-2 -26 -8 -49t-26 -45t-50 -22q-21 0 -72 16t-76 16q-45 0 -57 -43l-11 1q2 26 8 48.5t26 44.5t51 22z" />
    <glyph glyph-name="hungarumlaut" unicode="&#x2dd;" 
d="M262 729l59 -64l-169 -123l-9 10zM102 729l59 -64l-169 -123l-9 10z" />
    <glyph glyph-name="Wgrave" unicode="&#x1e80;" horiz-adv-x="995" 
d="M276 -8l-188 577q-35 107 -85 161v2h209v-2q-36 -59 -2 -166l129 -405l155 389l-8 21q-41 114 -85 161v2h209v-2q-15 -26 -17.5 -65.5t15.5 -100.5l140 -397l114 348q46 142 -2 215v2h132v-2q-61 -63 -98 -182l-181 -556h-20l-189 527l-208 -527h-20zM604 782l-245 91
l51 86l200 -167z" />
    <glyph glyph-name="wgrave" unicode="&#x1e81;" horiz-adv-x="668" 
d="M65 359q-27 83 -60 116v2h171v-2q-24 -42 -2 -109l71 -217l74 204l-2 6q-27 78 -63 116v2h170v-2q-24 -42 0 -109l72 -217l69 189q29 81 -6 137v2h104v-2q-47 -51 -73 -123l-130 -362h-16l-116 337l-121 -337h-16zM407 532l-201 146l76 71l133 -209z" />
    <glyph glyph-name="Wacute" unicode="&#x1e82;" horiz-adv-x="995" 
d="M276 -8l-188 577q-35 107 -85 161v2h209v-2q-36 -59 -2 -166l129 -405l155 389l-8 21q-41 114 -85 161v2h209v-2q-15 -26 -17.5 -65.5t15.5 -100.5l140 -397l114 348q46 142 -2 215v2h132v-2q-61 -63 -98 -182l-181 -556h-20l-189 527l-208 -527h-20zM594 959l52 -86
l-241 -91l-6 10z" />
    <glyph glyph-name="wacute" unicode="&#x1e83;" horiz-adv-x="668" 
d="M65 359q-27 83 -60 116v2h171v-2q-24 -42 -2 -109l71 -217l74 204l-2 6q-27 78 -63 116v2h170v-2q-24 -42 0 -109l72 -217l69 189q29 81 -6 137v2h104v-2q-47 -51 -73 -123l-130 -362h-16l-116 337l-121 -337h-16zM414 749l73 -71l-198 -136l-8 8z" />
    <glyph glyph-name="Wdieresis" unicode="&#x1e84;" horiz-adv-x="995" 
d="M276 -8l-188 577q-35 107 -85 161v2h209v-2q-36 -59 -2 -166l129 -405l155 389l-8 21q-41 114 -85 161v2h209v-2q-15 -26 -17.5 -65.5t15.5 -100.5l140 -397l114 348q46 142 -2 215v2h132v-2q-61 -63 -98 -182l-181 -556h-20l-189 527l-208 -527h-20zM697 868
q0 -25 -17.5 -42.5t-42.5 -17.5t-42.5 17.5t-17.5 42.5t17.5 43t42.5 18t42.5 -18t17.5 -43zM457 868q0 -25 -17.5 -42.5t-42.5 -17.5t-42.5 17.5t-17.5 42.5t17.5 43t42.5 18t42.5 -18t17.5 -43z" />
    <glyph glyph-name="wdieresis" unicode="&#x1e85;" horiz-adv-x="668" 
d="M65 359q-27 83 -60 116v2h171v-2q-24 -42 -2 -109l71 -217l74 204l-2 6q-27 78 -63 116v2h170v-2q-24 -42 0 -109l72 -217l69 189q29 81 -6 137v2h104v-2q-47 -51 -73 -123l-130 -362h-16l-116 337l-121 -337h-16zM508 658q0 -25 -17.5 -42.5t-42.5 -17.5t-42.5 17.5
t-17.5 42.5t17.5 43t42.5 18t42.5 -18t17.5 -43zM308 658q0 -25 -17.5 -42.5t-42.5 -17.5t-42.5 17.5t-17.5 42.5t17.5 43t42.5 18t42.5 -18t17.5 -43z" />
    <glyph glyph-name="Ygrave" unicode="&#x1ef2;" horiz-adv-x="601" 
d="M202 2q24 38 32 68t8 81v182l-145 259q-57 100 -110 138v2h227v-2q-20 -17 -18 -52.5t23 -73.5l131 -241l99 173q63 112 16 194v2h149v-2q-39 -37 -64 -71t-64 -101l-129 -224v-183q0 -52 7.5 -81t32.5 -68v-2h-195v2zM422 782l-245 91l51 86l200 -167z" />
    <glyph glyph-name="ygrave" unicode="&#x1ef3;" horiz-adv-x="449" 
d="M39 -129q130 0 168 105l1 4l-142 378q-29 79 -61 117v2h168v-2q-27 -46 4 -128l84 -225l85 227q12 45 6.5 75t-21.5 51v2h113v-2q-48 -51 -74 -123l-155 -401q-38 -96 -78 -132.5t-96 -43.5zM315 532l-201 146l76 71l133 -209z" />
    <glyph glyph-name="endash" unicode="&#x2013;" horiz-adv-x="530" 
d="M30 271v20h470v-20h-470z" />
    <glyph glyph-name="emdash" unicode="&#x2014;" horiz-adv-x="780" 
d="M30 271v20h720v-20h-720z" />
    <glyph glyph-name="quoteleft" unicode="&#x2018;" horiz-adv-x="246" 
d="M191 749q-52 -50 -52 -102q0 -25 45 -77v-2l-79 -63q-45 32 -45 82q0 47 39 93.5t87 74.5z" />
    <glyph glyph-name="quoteright" unicode="&#x2019;" horiz-adv-x="246" 
d="M55 511q52 50 52 102q0 25 -45 77v2l79 63q45 -32 45 -82q0 -47 -39 -93.5t-87 -74.5z" />
    <glyph glyph-name="quotesinglbase" unicode="&#x201a;" horiz-adv-x="246" 
d="M55 -89q52 50 52 102q0 25 -45 77v2l79 63q45 -32 45 -82q0 -47 -39 -93.5t-87 -74.5z" />
    <glyph glyph-name="quotedblleft" unicode="&#x201c;" horiz-adv-x="416" 
d="M191 749q-52 -50 -52 -102q0 -25 45 -77v-2l-79 -63q-45 32 -45 82q0 47 39 93.5t87 74.5zM361 749q-52 -50 -52 -102q0 -25 45 -77v-2l-79 -63q-45 32 -45 82q0 47 39 93.5t87 74.5z" />
    <glyph glyph-name="quotedblright" unicode="&#x201d;" horiz-adv-x="416" 
d="M225 511q52 50 52 102q0 25 -45 77v2l79 63q45 -32 45 -82q0 -47 -39 -93.5t-87 -74.5zM55 511q52 50 52 102q0 25 -45 77v2l79 63q45 -32 45 -82q0 -47 -39 -93.5t-87 -74.5z" />
    <glyph glyph-name="quotedblbase" unicode="&#x201e;" horiz-adv-x="416" 
d="M55 -89q52 50 52 102q0 25 -45 77v2l79 63q45 -32 45 -82q0 -47 -39 -93.5t-87 -74.5zM225 -89q52 50 52 102q0 25 -45 77v2l79 63q45 -32 45 -82q0 -47 -39 -93.5t-87 -74.5z" />
    <glyph glyph-name="dagger" unicode="&#x2020;" horiz-adv-x="416" 
d="M217 0h-18l-48 262l47 251l-168 -46v114l167 -46l-51 197h124l-51 -197l167 46v-114l-168 46l47 -251z" />
    <glyph glyph-name="daggerdbl" unicode="&#x2021;" horiz-adv-x="416" 
d="M219 197l51 -197h-124l51 197l-167 -46v114l167 -46l-46 146l46 148l-167 -46v114l167 -46l-51 197h124l-51 -197l167 46v-114l-167 46l46 -148l-46 -146l167 46v-114z" />
    <glyph glyph-name="bullet" unicode="&#x2022;" horiz-adv-x="332" 
d="M166 194q-38 0 -64.5 27t-26.5 64q0 39 26.5 66t64.5 27q36 0 63.5 -27t27.5 -66q0 -36 -27.5 -63.5t-63.5 -27.5z" />
    <glyph glyph-name="ellipsis" unicode="&#x2026;" horiz-adv-x="756" 
d="M128 -5q-28 0 -47.5 20t-19.5 47q0 29 19.5 48.5t47.5 19.5q27 0 47 -19.5t20 -48.5q0 -27 -20 -47t-47 -20zM378 -5q-28 0 -47.5 20t-19.5 47q0 29 19.5 48.5t47.5 19.5q27 0 47 -19.5t20 -48.5q0 -27 -20 -47t-47 -20zM628 -5q-28 0 -47.5 20t-19.5 47q0 29 19.5 48.5
t47.5 19.5q27 0 47 -19.5t20 -48.5q0 -27 -20 -47t-47 -20z" />
    <glyph glyph-name="perthousand" unicode="&#x2030;" horiz-adv-x="1170" 
d="M194 346q-69 0 -118 58t-49 143q0 86 48.5 143t118.5 57t120.5 -57.5t50.5 -142.5q0 -84 -50.5 -142.5t-120.5 -58.5zM194 361q77 0 77 186q0 185 -77 185q-41 0 -57 -48t-16 -137t16 -137.5t57 -48.5zM573 -8q-69 0 -118 58t-49 143q0 86 48.5 143t118.5 57t120.5 -57.5
t50.5 -142.5q0 -84 -50.5 -142.5t-120.5 -58.5zM972 -8q-69 0 -118 58t-49 143q0 86 48.5 143t118.5 57t120.5 -57.5t50.5 -142.5q0 -84 -50.5 -142.5t-120.5 -58.5zM573 7q77 0 77 186q0 185 -77 185q-41 0 -57 -48t-16 -137t16 -137.5t57 -48.5zM972 7q77 0 77 186
q0 185 -77 185q-41 0 -57 -48t-16 -137t16 -137.5t57 -48.5zM124 15l520 728l18 -12l-521 -730z" />
    <glyph glyph-name="guilsinglleft" unicode="&#x2039;" horiz-adv-x="281" 
d="M213 52l-153 175v20l153 175l8 -6l-91 -179l91 -179z" />
    <glyph glyph-name="guilsinglright" unicode="&#x203a;" horiz-adv-x="281" 
d="M60 58l91 179l-91 179l8 6l153 -175v-20l-153 -175z" />
    <glyph glyph-name="fraction" unicode="&#x2044;" horiz-adv-x="272" 
d="M-135 15l520 728l18 -12l-521 -730z" />
    <glyph glyph-name="Euro" unicode="&#x20ac;" horiz-adv-x="718" 
d="M651 57q-18 -18 -85.5 -45t-139.5 -27q-130 0 -216.5 85t-107.5 221h-92v20h89q-3 27 -3 55t3 55h-89v20h92q22 134 116.5 220t226.5 86q104 0 202 -48l20 -164l-8 -3q-62 108 -110.5 151.5t-116.5 43.5q-94 0 -145 -76.5t-61 -209.5h235v-20h-236q-2 -18 -2 -28v-27
q0 -17 2 -55h236v-20h-235q10 -132 60.5 -209t139.5 -77q82 0 135 59.5t102 178.5l8 -3z" />
    <glyph glyph-name="trademark" unicode="&#x2122;" horiz-adv-x="788" 
d="M243 403h-108v2q18 34 18 79v234l-39 -1q-27 0 -88 -99l-6 2l21 112h295l20 -112l-6 -2q-61 99 -86 99l-39 1v-234q0 -45 18 -79v-2zM456 403h-77v2q18 23 23 39.5t5 48.5v179q0 19 -8 30.5t-28 27.5v2h106l93 -222l94 222h104v-2q-22 -18 -29 -31.5t-7 -42.5v-172
q0 -45 18 -79v-2h-108v2q18 34 18 79v198l-114 -269h-9l-115 268l2 -188q0 -31 6 -48t26 -40v-2z" />
    <glyph glyph-name="onethird" unicode="&#x2153;" horiz-adv-x="689" 
d="M43 354v1q17 20 22 36t5 45v221h-47v6q80 36 128 84h6v-311q0 -29 5 -45t21 -36v-1h-140zM48 15l520 728l18 -12l-521 -730zM510 -8q-65 0 -106 23l-13 95l6 1q45 -70 63 -86q21 -18 46 -18q34 0 53 30t19 80q0 103 -76 103q-35 0 -66 -22l-6 7l131 111h-153l20 68h233
v-5l-173 -145q15 4 37 4q57 0 99 -31t42 -90q0 -57 -43 -91t-113 -34z" />
    <glyph glyph-name="twothirds" unicode="&#x2154;" horiz-adv-x="750" 
d="M10 354v6q99 93 138.5 156.5t39.5 124.5q0 43 -14.5 67t-40.5 24q-51 0 -100 -100l-5 1l13 97q46 17 95 17q69 0 104 -28.5t35 -75.5q0 -52 -45 -102.5t-143 -118.5h97q56 0 98 51l4 -1l-27 -118h-249zM109 15l520 728l18 -12l-521 -730zM571 -8q-65 0 -106 23l-13 95
l6 1q45 -70 63 -86q21 -18 46 -18q34 0 53 30t19 80q0 103 -76 103q-35 0 -66 -22l-6 7l131 111h-153l20 68h233v-5l-173 -145q15 4 37 4q57 0 99 -31t42 -90q0 -57 -43 -91t-113 -34z" />
    <glyph glyph-name="oneeighth" unicode="&#x215b;" horiz-adv-x="661" 
d="M43 354v1q17 20 22 36t5 45v221h-47v6q80 36 128 84h6v-311q0 -29 5 -45t21 -36v-1h-140zM38 15l520 728l18 -12l-521 -730zM488 -8q-61 0 -100.5 27.5t-39.5 73.5q0 64 85 91q-67 40 -67 100q0 48 35.5 78.5t92.5 30.5q54 0 90 -25t36 -64q0 -59 -76 -81q94 -48 94 -119
q0 -50 -42.5 -81t-107.5 -31zM489 7q35 0 56 18.5t21 47.5q0 32 -26.5 53t-88.5 48l-6 3q-37 -31 -37 -82q0 -40 21.5 -64t59.5 -24zM531 230q29 25 29 72q0 36 -16.5 56t-47.5 20q-29 0 -45.5 -16t-16.5 -41q0 -27 21 -47t71 -42z" />
    <glyph glyph-name="threeeighths" unicode="&#x215c;" horiz-adv-x="722" 
d="M142 346q-65 0 -106 23l-13 95l6 1q45 -70 63 -86q21 -18 46 -18q34 0 53 30t19 80q0 103 -76 103q-35 0 -66 -22l-6 7l131 111h-153l20 68h233v-5l-173 -145q15 4 37 4q57 0 99 -31t42 -90q0 -57 -43 -91t-113 -34zM99 15l520 728l18 -12l-521 -730zM549 -8
q-61 0 -100.5 27.5t-39.5 73.5q0 64 85 91q-67 40 -67 100q0 48 35.5 78.5t92.5 30.5q54 0 90 -25t36 -64q0 -59 -76 -81q94 -48 94 -119q0 -50 -42.5 -81t-107.5 -31zM550 7q35 0 56 18.5t21 47.5q0 32 -26.5 53t-88.5 48l-6 3q-37 -31 -37 -82q0 -40 21.5 -64t59.5 -24z
M592 230q29 25 29 72q0 36 -16.5 56t-47.5 20q-29 0 -45.5 -16t-16.5 -41q0 -27 21 -47t71 -42z" />
    <glyph glyph-name="fiveeighths" unicode="&#x215d;" horiz-adv-x="719" 
d="M126 346q-55 0 -93 22l-13 97l5 1q50 -105 103 -105q31 0 49.5 29.5t18.5 80.5q0 110 -84 110q-33 0 -62 -19l-4 3l28 174h201l-13 -68h-182l-16 -89q31 16 71 16q59 0 102.5 -32t43.5 -93t-46 -94t-109 -33zM96 15l520 728l18 -12l-521 -730zM546 -8q-61 0 -100.5 27.5
t-39.5 73.5q0 64 85 91q-67 40 -67 100q0 48 35.5 78.5t92.5 30.5q54 0 90 -25t36 -64q0 -59 -76 -81q94 -48 94 -119q0 -50 -42.5 -81t-107.5 -31zM547 7q35 0 56 18.5t21 47.5q0 32 -26.5 53t-88.5 48l-6 3q-37 -31 -37 -82q0 -40 21.5 -64t59.5 -24zM589 230q29 25 29 72
q0 36 -16.5 56t-47.5 20q-29 0 -45.5 -16t-16.5 -41q0 -27 21 -47t71 -42z" />
    <glyph glyph-name="seveneighths" unicode="&#x215e;" horiz-adv-x="651" 
d="M50 354q48 154 183 312h-208l14 73h250v-5q-117 -196 -146 -380h-93zM28 15l520 728l18 -12l-521 -730zM478 -8q-61 0 -100.5 27.5t-39.5 73.5q0 64 85 91q-67 40 -67 100q0 48 35.5 78.5t92.5 30.5q54 0 90 -25t36 -64q0 -59 -76 -81q94 -48 94 -119q0 -50 -42.5 -81
t-107.5 -31zM479 7q35 0 56 18.5t21 47.5q0 32 -26.5 53t-88.5 48l-6 3q-37 -31 -37 -82q0 -40 21.5 -64t59.5 -24zM521 230q29 25 29 72q0 36 -16.5 56t-47.5 20q-29 0 -45.5 -16t-16.5 -41q0 -27 21 -47t71 -42z" />
    <glyph glyph-name="minus" unicode="&#x2212;" horiz-adv-x="532" 
d="M45 297v22h442v-22h-442z" />
    <glyph glyph-name="uni24C5" unicode="&#x24c5;" horiz-adv-x="823" 
d="M30 366q0 159 111 269.5t270 110.5t270.5 -110.5t111.5 -269.5t-111.5 -270t-270.5 -111t-270 111t-111 270zM57 366q0 -149 103 -254t251 -105q146 0 250 105t104 254t-103.5 253.5t-250.5 104.5q-148 0 -251 -104.5t-103 -253.5zM284 156q22 42 22 97v204q0 55 -22 97
v2h141q156 0 156 -111q0 -57 -42.5 -92t-120.5 -35h-37v-65q0 -57 22 -97v-3h-119v3zM416 539h-11q-13 0 -24 -1v-203h34q46 0 69 31.5t23 77.5q0 53 -24 74t-67 21z" />
    <glyph glyph-name="idotaccent" horiz-adv-x="242" 
d="M179 658q0 -25 -17.5 -42.5t-42.5 -17.5t-42.5 17.5t-17.5 42.5t17.5 43t42.5 18t42.5 -18t17.5 -43zM51 2q23 97 23 192v114q0 78 -45 129v7l145 53v-302q0 -74 4 -114.5t18 -78.5v-2h-145v2z" />
    <glyph glyph-name="space_uni0326" 
d="M75 -239q56 38 56 85q0 23 -42 65v1l75 50q42 -28 42 -70q0 -39 -40 -77t-88 -59z" />
    <glyph glyph-name="five.num" horiz-adv-x="296" 
d="M121 346q-55 0 -93 22l-13 97l5 1q50 -105 103 -105q31 0 49.5 29.5t18.5 80.5q0 110 -84 110q-33 0 -62 -19l-4 3l28 174h201l-13 -68h-182l-16 -89q31 16 71 16q59 0 102.5 -32t43.5 -93t-46 -94t-109 -33z" />
    <glyph glyph-name="zero.num" horiz-adv-x="382" 
d="M189 346q-69 0 -118 58t-49 143q0 86 48.5 143t118.5 57t120.5 -57.5t50.5 -142.5q0 -84 -50.5 -142.5t-120.5 -58.5zM189 361q77 0 77 186q0 185 -77 185q-41 0 -57 -48t-16 -137t16 -137.5t57 -48.5z" />
    <glyph glyph-name="one.num" horiz-adv-x="208" 
d="M38 354v1q17 20 22 36t5 45v221h-47v6q80 36 128 84h6v-311q0 -29 5 -45t21 -36v-1h-140z" />
    <glyph glyph-name="two.num" horiz-adv-x="306" 
d="M5 354v6q99 93 138.5 156.5t39.5 124.5q0 43 -14.5 67t-40.5 24q-51 0 -100 -100l-5 1l13 97q46 17 95 17q69 0 104 -28.5t35 -75.5q0 -52 -45 -102.5t-143 -118.5h97q56 0 98 51l4 -1l-27 -118h-249z" />
    <glyph glyph-name="three.num" horiz-adv-x="311" 
d="M137 346q-65 0 -106 23l-13 95l6 1q45 -70 63 -86q21 -18 46 -18q34 0 53 30t19 80q0 103 -76 103q-35 0 -66 -22l-6 7l131 111h-153l20 68h233v-5l-173 -145q15 4 37 4q57 0 99 -31t42 -90q0 -57 -43 -91t-113 -34z" />
    <glyph glyph-name="four.num" horiz-adv-x="329" 
d="M151 355q21 35 21 81v18h-162v6l171 279h102l-250 -268h139v107h89v-107h50l-4 -17h-46v-18q0 -46 21 -81v-1h-131v1z" />
    <glyph glyph-name="six.num" horiz-adv-x="338" 
d="M170 346q-66 0 -107 45t-41 112q0 76 54.5 144.5t177.5 99.5l3 -9q-110 -41 -139 -173q21 45 78 45q51 0 86.5 -34t35.5 -91q0 -61 -43 -100t-105 -39zM173 361q27 0 42.5 29.5t15.5 85.5q0 104 -60 104q-42 0 -57 -38q-4 -25 -4 -53q0 -55 15.5 -91.5t47.5 -36.5z" />
    <glyph glyph-name="seven.num" horiz-adv-x="284" 
d="M45 354q48 154 183 312h-208l14 73h250v-5q-117 -196 -146 -380h-93z" />
    <glyph glyph-name="eight.num" horiz-adv-x="320" 
d="M155 346q-61 0 -100.5 27.5t-39.5 73.5q0 64 85 91q-67 40 -67 100q0 48 35.5 78.5t92.5 30.5q54 0 90 -25t36 -64q0 -59 -76 -81q94 -48 94 -119q0 -50 -42.5 -81t-107.5 -31zM156 361q35 0 56 18.5t21 47.5q0 32 -26.5 53t-88.5 48l-6 3q-37 -31 -37 -82
q0 -40 21.5 -64t59.5 -24zM198 584q29 25 29 72q0 36 -16.5 56t-47.5 20q-29 0 -45.5 -16t-16.5 -41q0 -27 21 -47t71 -42z" />
    <glyph glyph-name="nine.num" horiz-adv-x="338" 
d="M81 355q110 43 139 173q-22 -45 -78 -45q-51 0 -86.5 34t-35.5 91q0 61 43 100t105 39q66 0 107 -45t41 -112q0 -76 -54.5 -144t-177.5 -100zM167 513q42 0 57 38q4 25 4 53q0 55 -15.5 91.5t-47.5 36.5q-27 0 -42.5 -29.5t-15.5 -85.5q0 -104 60 -104z" />
    <glyph glyph-name="five.den" horiz-adv-x="296" 
d="M121 -8q-55 0 -93 22l-13 97l5 1q50 -105 103 -105q31 0 49.5 29.5t18.5 80.5q0 110 -84 110q-33 0 -62 -19l-4 3l28 174h201l-13 -68h-182l-16 -89q31 16 71 16q59 0 102.5 -32t43.5 -93t-46 -94t-109 -33z" />
    <glyph glyph-name="zero.den" horiz-adv-x="382" 
d="M189 -8q-69 0 -118 58t-49 143q0 86 48.5 143t118.5 57t120.5 -57.5t50.5 -142.5q0 -84 -50.5 -142.5t-120.5 -58.5zM189 7q77 0 77 186q0 185 -77 185q-41 0 -57 -48t-16 -137t16 -137.5t57 -48.5z" />
    <glyph glyph-name="one.den" horiz-adv-x="208" 
d="M38 0v1q17 20 22 36t5 45v221h-47v6q80 36 128 84h6v-311q0 -29 5 -45t21 -36v-1h-140z" />
    <glyph glyph-name="two.den" horiz-adv-x="306" 
d="M5 0v6q99 93 138.5 156.5t39.5 124.5q0 43 -14.5 67t-40.5 24q-51 0 -100 -100l-5 1l13 97q46 17 95 17q69 0 104 -28.5t35 -75.5q0 -52 -45 -102.5t-143 -118.5h97q56 0 98 51l4 -1l-27 -118h-249z" />
    <glyph glyph-name="three.den" horiz-adv-x="311" 
d="M137 -8q-65 0 -106 23l-13 95l6 1q45 -70 63 -86q21 -18 46 -18q34 0 53 30t19 80q0 103 -76 103q-35 0 -66 -22l-6 7l131 111h-153l20 68h233v-5l-173 -145q15 4 37 4q57 0 99 -31t42 -90q0 -57 -43 -91t-113 -34z" />
    <glyph glyph-name="four.den" horiz-adv-x="329" 
d="M151 1q21 35 21 81v18h-162v6l171 279h102l-250 -268h139v107h89v-107h50l-4 -17h-46v-18q0 -46 21 -81v-1h-131v1z" />
    <glyph glyph-name="six.den" horiz-adv-x="338" 
d="M170 -8q-66 0 -107 45t-41 112q0 76 54.5 144.5t177.5 99.5l3 -9q-110 -41 -139 -173q21 45 78 45q51 0 86.5 -34t35.5 -91q0 -61 -43 -100t-105 -39zM173 7q27 0 42.5 29.5t15.5 85.5q0 104 -60 104q-42 0 -57 -38q-4 -25 -4 -53q0 -55 15.5 -91.5t47.5 -36.5z" />
    <glyph glyph-name="seven.den" horiz-adv-x="284" 
d="M45 0q48 154 183 312h-208l14 73h250v-5q-117 -196 -146 -380h-93z" />
    <glyph glyph-name="eight.den" horiz-adv-x="320" 
d="M155 -8q-61 0 -100.5 27.5t-39.5 73.5q0 64 85 91q-67 40 -67 100q0 48 35.5 78.5t92.5 30.5q54 0 90 -25t36 -64q0 -59 -76 -81q94 -48 94 -119q0 -50 -42.5 -81t-107.5 -31zM156 7q35 0 56 18.5t21 47.5q0 32 -26.5 53t-88.5 48l-6 3q-37 -31 -37 -82q0 -40 21.5 -64
t59.5 -24zM198 230q29 25 29 72q0 36 -16.5 56t-47.5 20q-29 0 -45.5 -16t-16.5 -41q0 -27 21 -47t71 -42z" />
    <glyph glyph-name="nine.den" horiz-adv-x="338" 
d="M81 1q110 43 139 173q-22 -45 -78 -45q-51 0 -86.5 34t-35.5 91q0 61 43 100t105 39q66 0 107 -45t41 -112q0 -76 -54.5 -144t-177.5 -100zM167 159q42 0 57 38q4 25 4 53q0 55 -15.5 91.5t-47.5 36.5q-27 0 -42.5 -29.5t-15.5 -85.5q0 -104 60 -104z" />
    <glyph glyph-name="five.sub" horiz-adv-x="296" 
d="M121 -88q-55 0 -93 22l-13 97l5 1q50 -105 103 -105q31 0 49.5 29.5t18.5 80.5q0 110 -84 110q-33 0 -62 -19l-4 3l28 174h201l-13 -68h-182l-16 -89q31 16 71 16q59 0 102.5 -32t43.5 -93t-46 -94t-109 -33z" />
    <glyph glyph-name="zero.sub" horiz-adv-x="382" 
d="M189 -88q-69 0 -118 58t-49 143q0 86 48.5 143t118.5 57t120.5 -57.5t50.5 -142.5q0 -84 -50.5 -142.5t-120.5 -58.5zM189 -73q77 0 77 186q0 185 -77 185q-41 0 -57 -48t-16 -137t16 -137.5t57 -48.5z" />
    <glyph glyph-name="one.sub" horiz-adv-x="208" 
d="M38 -80v1q17 20 22 36t5 45v221h-47v6q80 36 128 84h6v-311q0 -29 5 -45t21 -36v-1h-140z" />
    <glyph glyph-name="two.sub" horiz-adv-x="306" 
d="M5 -80v6q99 93 138.5 156.5t39.5 124.5q0 43 -14.5 67t-40.5 24q-51 0 -100 -100l-5 1l13 97q46 17 95 17q69 0 104 -28.5t35 -75.5q0 -52 -45 -102.5t-143 -118.5h97q56 0 98 51l4 -1l-27 -118h-249z" />
    <glyph glyph-name="three.sub" horiz-adv-x="311" 
d="M137 -88q-65 0 -106 23l-13 95l6 1q45 -70 63 -86q21 -18 46 -18q34 0 53 30t19 80q0 103 -76 103q-35 0 -66 -22l-6 7l131 111h-153l20 68h233v-5l-173 -145q15 4 37 4q57 0 99 -31t42 -90q0 -57 -43 -91t-113 -34z" />
    <glyph glyph-name="four.sub" horiz-adv-x="329" 
d="M151 -79q21 35 21 81v18h-162v6l171 279h102l-250 -268h139v107h89v-107h50l-4 -17h-46v-18q0 -46 21 -81v-1h-131v1z" />
    <glyph glyph-name="six.sub" horiz-adv-x="338" 
d="M170 -88q-66 0 -107 45t-41 112q0 76 54.5 144.5t177.5 99.5l3 -9q-110 -41 -139 -173q21 45 78 45q51 0 86.5 -34t35.5 -91q0 -61 -43 -100t-105 -39zM173 -73q27 0 42.5 29.5t15.5 85.5q0 104 -60 104q-42 0 -57 -38q-4 -25 -4 -53q0 -55 15.5 -91.5t47.5 -36.5z" />
    <glyph glyph-name="seven.sub" horiz-adv-x="284" 
d="M45 -80q48 154 183 312h-208l14 73h250v-5q-117 -196 -146 -380h-93z" />
    <glyph glyph-name="eight.sub" horiz-adv-x="320" 
d="M155 -88q-61 0 -100.5 27.5t-39.5 73.5q0 64 85 91q-67 40 -67 100q0 48 35.5 78.5t92.5 30.5q54 0 90 -25t36 -64q0 -59 -76 -81q94 -48 94 -119q0 -50 -42.5 -81t-107.5 -31zM156 -73q35 0 56 18.5t21 47.5q0 32 -26.5 53t-88.5 48l-6 3q-37 -31 -37 -82
q0 -40 21.5 -64t59.5 -24zM198 150q29 25 29 72q0 36 -16.5 56t-47.5 20q-29 0 -45.5 -16t-16.5 -41q0 -27 21 -47t71 -42z" />
    <glyph glyph-name="nine.sub" horiz-adv-x="338" 
d="M168 312q66 0 107 -44.5t41 -111.5q0 -76 -54.5 -144.5t-177.5 -99.5l-3 9q110 41 139 173q-21 -45 -78 -45q-51 0 -86.5 34t-35.5 91q0 61 43 99.5t105 38.5zM165 298q-27 0 -42.5 -29.5t-15.5 -85.5q0 -104 60 -104q42 0 57 38q4 25 4 53q0 55 -15.5 91.5t-47.5 36.5z
" />
    <glyph glyph-name="plus.sub" horiz-adv-x="315" 
d="M167 106v-123h-20v123h-122v18h122v123h20v-123h123v-18h-123z" />
    <glyph glyph-name="minus.sub" horiz-adv-x="315" 
d="M25 106v18h265v-18h-265z" />
    <glyph glyph-name="five.sup" horiz-adv-x="296" 
d="M121 426q-55 0 -93 22l-13 97l5 1q50 -105 103 -105q31 0 49.5 29.5t18.5 80.5q0 110 -84 110q-33 0 -62 -19l-4 3l28 174h201l-13 -68h-182l-16 -89q31 16 71 16q59 0 102.5 -32t43.5 -93t-46 -94t-109 -33z" />
    <glyph glyph-name="zero.sup" horiz-adv-x="382" 
d="M189 426q-69 0 -118 58t-49 143q0 86 48.5 143t118.5 57t120.5 -57.5t50.5 -142.5q0 -84 -50.5 -142.5t-120.5 -58.5zM189 441q77 0 77 186q0 185 -77 185q-41 0 -57 -48t-16 -137t16 -137.5t57 -48.5z" />
    <glyph glyph-name="one.sup" horiz-adv-x="208" 
d="M38 434v1q17 20 22 36t5 45v221h-47v6q80 36 128 84h6v-311q0 -29 5 -45t21 -36v-1h-140z" />
    <glyph glyph-name="two.sup" horiz-adv-x="306" 
d="M5 434v6q99 93 138.5 156.5t39.5 124.5q0 43 -14.5 67t-40.5 24q-51 0 -100 -100l-5 1l13 97q46 17 95 17q69 0 104 -28.5t35 -75.5q0 -52 -45 -102.5t-143 -118.5h97q56 0 98 51l4 -1l-27 -118h-249z" />
    <glyph glyph-name="three.sup" horiz-adv-x="311" 
d="M137 426q-65 0 -106 23l-13 95l6 1q45 -70 63 -86q21 -18 46 -18q34 0 53 30t19 80q0 103 -76 103q-35 0 -66 -22l-6 7l131 111h-153l20 68h233v-5l-173 -145q15 4 37 4q57 0 99 -31t42 -90q0 -57 -43 -91t-113 -34z" />
    <glyph glyph-name="four.sup" horiz-adv-x="329" 
d="M151 435q21 35 21 81v18h-162v6l171 279h102l-250 -268h139v107h89v-107h50l-4 -17h-46v-18q0 -46 21 -81v-1h-131v1z" />
    <glyph glyph-name="six.sup" horiz-adv-x="338" 
d="M170 426q-66 0 -107 45t-41 112q0 76 54.5 144.5t177.5 99.5l3 -9q-110 -41 -139 -173q21 45 78 45q51 0 86.5 -34t35.5 -91q0 -61 -43 -100t-105 -39zM173 441q27 0 42.5 29.5t15.5 85.5q0 104 -60 104q-42 0 -57 -38q-4 -25 -4 -53q0 -55 15.5 -91.5t47.5 -36.5z" />
    <glyph glyph-name="seven.sup" horiz-adv-x="284" 
d="M45 434q48 154 183 312h-208l14 73h250v-5q-117 -196 -146 -380h-93z" />
    <glyph glyph-name="eight.sup" horiz-adv-x="320" 
d="M155 426q-61 0 -100.5 27.5t-39.5 73.5q0 64 85 91q-67 40 -67 100q0 48 35.5 78.5t92.5 30.5q54 0 90 -25t36 -64q0 -59 -76 -81q94 -48 94 -119q0 -50 -42.5 -81t-107.5 -31zM156 441q35 0 56 18.5t21 47.5q0 32 -26.5 53t-88.5 48l-6 3q-37 -31 -37 -82
q0 -40 21.5 -64t59.5 -24zM198 664q29 25 29 72q0 36 -16.5 56t-47.5 20q-29 0 -45.5 -16t-16.5 -41q0 -27 21 -47t71 -42z" />
    <glyph glyph-name="nine.sup" horiz-adv-x="338" 
d="M81 435q110 43 139 173q-22 -45 -78 -45q-51 0 -86.5 34t-35.5 91q0 61 43 100t105 39q66 0 107 -45t41 -112q0 -76 -54.5 -144t-177.5 -100zM167 593q42 0 57 38q4 25 4 53q0 55 -15.5 91.5t-47.5 36.5q-27 0 -42.5 -29.5t-15.5 -85.5q0 -104 60 -104z" />
    <glyph glyph-name="plus.sup" horiz-adv-x="315" 
d="M167 616v-123h-20v123h-122v18h122v123h20v-123h123v-18h-123z" />
    <glyph glyph-name="minus.sup" horiz-adv-x="315" 
d="M25 616v18h265v-18h-265z" />
    <glyph glyph-name="space_uni0326.alt" 
d="M236 789q-56 -38 -56 -85q0 -23 42 -65v-1l-75 -50q-42 28 -42 70q0 39 40 77t88 59z" />
    <glyph glyph-name="caron.alt" 
d="M51 775h90l-103 -203l-10 2z" />
    <glyph glyph-name="space.uc" horiz-adv-x="191" 
 />
    <glyph glyph-name="questiondown.uc" horiz-adv-x="427" 
d="M301 508q-7 -42 -26.5 -77.5t-42 -61.5t-44.5 -55t-36.5 -72.5t-14.5 -99.5q0 -65 26 -102t75 -37q45 0 77 34.5t70 105.5l7 -2l-20 -131q-66 -25 -139 -25q-208 0 -208 162q0 44 16 80.5t40 60.5t54.5 50t59 48t53.5 54t37 68h16zM287 737q29 0 48 -19.5t19 -47.5
q0 -29 -19 -49t-48 -20q-28 0 -47.5 20t-19.5 49q0 27 19.5 47t47.5 20z" />
    <glyph glyph-name="exclamdown.uc" horiz-adv-x="234" 
d="M171 0h-107v2l45 506h16l46 -506v-2zM117 737q28 0 47.5 -20t19.5 -47q0 -29 -19.5 -49t-47.5 -20q-29 0 -48 20t-19 49q0 28 19 47.5t48 19.5z" />
    <glyph glyph-name="hyphen.uc" horiz-adv-x="281" 
d="M30 338v50h221v-50h-221z" />
    <glyph glyph-name="endash.uc" horiz-adv-x="530" 
d="M30 351v20h470v-20h-470z" />
    <glyph glyph-name="emdash.uc" horiz-adv-x="780" 
d="M30 351v20h720v-20h-720z" />
    <glyph glyph-name="guilsinglleft.uc" horiz-adv-x="281" 
d="M213 112l-153 175v20l153 175l8 -6l-91 -179l91 -179z" />
    <glyph glyph-name="guilsinglright.uc" horiz-adv-x="281" 
d="M60 118l91 179l-91 179l8 6l153 -175v-20l-153 -175z" />
    <glyph glyph-name="guillemotleft.uc" horiz-adv-x="431" 
d="M363 112l-153 175v20l153 175l8 -6l-91 -179l91 -179zM213 112l-153 175v20l153 175l8 -6l-91 -179l91 -179z" />
    <glyph glyph-name="guillemotright.uc" horiz-adv-x="431" 
d="M210 118l91 179l-91 179l8 6l153 -175v-20l-153 -175zM60 118l91 179l-91 179l8 6l153 -175v-20l-153 -175z" />
    <glyph glyph-name="parenleft.uc" horiz-adv-x="350" 
d="M295 -90q-99 77 -154.5 189.5t-55.5 252.5q0 139 55.5 253t154.5 190l8 -9q-123 -168 -123 -434q0 -265 123 -433z" />
    <glyph glyph-name="parenright.uc" horiz-adv-x="350" 
d="M47 -81q123 168 123 433q0 266 -123 434l8 9q99 -76 154.5 -190t55.5 -253q0 -140 -55.5 -252.5t-154.5 -189.5z" />
    <glyph glyph-name="bracketleft.uc" horiz-adv-x="369" 
d="M90 795h244v-20h-154v-845h154v-20h-244v885z" />
    <glyph glyph-name="bracketright.uc" horiz-adv-x="369" 
d="M279 -90h-244v20h154v845h-154v20h244v-885z" />
    <glyph glyph-name="braceleft.uc" horiz-adv-x="343" 
d="M293 -90q-202 0 -202 128q0 36 32 109t32 108q0 87 -113 87h-22v21h22q113 0 113 87q0 36 -32 108.5t-32 108.5q0 128 202 128h15v-20h-15q-58 0 -82 -18.5t-24 -80.5q0 -27 15.5 -94t15.5 -102q0 -65 -36 -91t-110 -35v-3q77 -11 111.5 -35t34.5 -91q0 -35 -15.5 -102
t-15.5 -94q0 -62 24 -80.5t82 -18.5h15v-20h-15z" />
    <glyph glyph-name="braceright.uc" horiz-adv-x="343" 
d="M35 -90v20h15q58 0 82 18.5t24 80.5q0 27 -15.5 94t-15.5 102q0 67 34.5 91t111.5 35v3q-74 9 -110 35t-36 91q0 35 15.5 102t15.5 94q0 62 -24 80.5t-82 18.5h-15v20h15q202 0 202 -128q0 -36 -32 -108.5t-32 -108.5q0 -87 113 -87h22v-21h-22q-113 0 -113 -87
q0 -35 32 -108t32 -109q0 -128 -202 -128h-15z" />
    <glyph glyph-name="slash.uc" horiz-adv-x="392" 
d="M371 821h28l-380 -911h-28z" />
    <glyph glyph-name="backslash.uc" horiz-adv-x="392" 
d="M373 -90l-380 911h28l380 -911h-28z" />
    <glyph glyph-name="bar.uc" horiz-adv-x="205" 
d="M90 -89v911h25v-911h-25z" />
    <glyph glyph-name="at.uc" horiz-adv-x="857" 
d="M421 -41q-170 0 -280.5 96.5t-110.5 263.5q0 181 130 309t325 128q156 0 249 -84t93 -229q0 -122 -65 -206.5t-163 -84.5q-53 0 -82.5 27.5t-35.5 61.5t0 72q-75 -166 -160 -166q-37 0 -59.5 34t-22.5 91q0 71 32 140.5t95 117.5t139 48q44 0 79 -14l38 14h7l-62 -236
q-22 -70 -14 -120t60 -50q72 0 119 83.5t47 192.5q0 137 -80.5 212.5t-217.5 75.5q-119 0 -209.5 -60t-136 -154.5t-45.5 -205.5q0 -157 92.5 -247t242.5 -90q130 0 214 60l9 -16q-91 -64 -227 -64zM366 215q58 0 132 190l34 130q-9 24 -41 24q-44 0 -82 -46.5t-58 -109.5
t-20 -119q0 -69 35 -69z" />
    <glyph glyph-name="grave.uc" 
d="M254 782l-245 91l51 86l200 -167z" />
    <glyph glyph-name="dieresis.uc" 
d="M330 868q0 -25 -17.5 -42.5t-42.5 -17.5t-42.5 17.5t-17.5 42.5t17.5 43t42.5 18t42.5 -18t17.5 -43zM90 868q0 -25 -17.5 -42.5t-42.5 -17.5t-42.5 17.5t-17.5 42.5t17.5 43t42.5 18t42.5 -18t17.5 -43z" />
    <glyph glyph-name="macron.uc" 
d="M-7 883h313v-50h-313v50z" />
    <glyph glyph-name="acute.uc" 
d="M221 959l52 -86l-241 -91l-6 10z" />
    <glyph glyph-name="circumflex.uc" 
d="M150 858l-147 -76l-9 10l153 153h6l153 -153l-9 -10z" />
    <glyph glyph-name="caron.uc" 
d="M72 782l-153 153l9 10l147 -76l147 76l9 -10l-153 -153h-6z" />
    <glyph glyph-name="breve.uc" 
d="M150 859q100 0 126 85h10q0 -54 -33 -102t-103 -48q-48 0 -80.5 26.5t-43.5 58.5t-11 65h10q26 -85 125 -85z" />
    <glyph glyph-name="dotaccent.uc" 
d="M210 868q0 -25 -17.5 -42.5t-42.5 -17.5t-42.5 17.5t-17.5 42.5t17.5 43t42.5 18t42.5 -18t17.5 -43z" />
    <glyph glyph-name="ring.uc" 
d="M60 867q0 38 25.5 62t64.5 24t64.5 -24t25.5 -62t-25.5 -61.5t-64.5 -23.5t-64.5 23.5t-25.5 61.5zM99 867q0 -31 13.5 -48.5t37.5 -17.5t37.5 17.5t13.5 48.5t-13.5 49.5t-37.5 18.5t-37.5 -18.5t-13.5 -49.5z" />
    <glyph glyph-name="tilde.uc" 
d="M72 905q31 0 85.5 -20t86.5 -20q27 0 41 11t25 43l10 -2q-1 -26 -4.5 -43.5t-12 -39t-27.5 -32.5t-48 -11q-31 0 -85.5 20t-86.5 20q-27 0 -41 -11t-25 -43l-10 2q1 26 4.5 43.5t12 39t27.5 32.5t48 11z" />
    <glyph glyph-name="hungarumlaut.uc" 
d="M289 949l58 -77l-180 -90l-9 10zM99 949l58 -77l-180 -90l-9 10z" />
    <glyph glyph-name="Cacute.pl" horiz-adv-x="752" 
d="M685 57q-22 -18 -104.5 -45t-170.5 -27q-170 0 -275 109t-105 272q0 161 113 271t286 110q131 0 252 -48l20 -164l-8 -3q-78 110 -135.5 152.5t-141.5 42.5q-132 0 -195.5 -98t-63.5 -263q0 -164 63 -262.5t190 -98.5q99 0 164 60t123 178l8 -3zM469 961l67 -58
l-173 -121l-8 7z" />
    <glyph glyph-name="Nacute.pl" horiz-adv-x="694" 
d="M109 627l4 -428q0 -67 13.5 -105.5t55.5 -91.5v-2h-154v2q37 51 49 90.5t12 106.5v392q-4 49 -20 77t-58 62v2h160l419 -569l-3 370q0 66 -12.5 105.5t-48.5 91.5v2h144v-2q-37 -53 -49 -92t-12 -105v-533l-36 -3zM410 961l67 -58l-173 -121l-8 7z" />
    <glyph glyph-name="Oacute.pl" horiz-adv-x="814" 
d="M406 -15q-145 0 -260.5 112.5t-115.5 267.5t115.5 268.5t260.5 113.5q94 0 181 -50.5t142 -139.5t55 -192t-55 -191.5t-142 -138.5t-181 -50zM406 5q125 0 188 98t63 262q0 163 -63.5 262.5t-187.5 99.5t-186.5 -99.5t-62.5 -262.5q0 -162 62.5 -261t186.5 -99zM462 961
l67 -58l-173 -121l-8 7z" />
    <glyph glyph-name="Sacute.pl" horiz-adv-x="553" 
d="M474 537l-9 -3q-50 106 -100 149.5t-107 43.5q-51 0 -80 -30.5t-29 -81.5q0 -27 10.5 -51t23.5 -40t40.5 -34t45 -27t53.5 -26q38 -19 60 -30.5t52.5 -34t47 -44.5t29 -56t12.5 -74q0 -106 -74 -159.5t-188 -53.5q-101 0 -206 39l-20 185l8 3q57 -107 117 -157t129 -50
q65 0 100 39.5t35 97.5q0 65 -40.5 106t-114.5 77q-31 15 -45 22t-41 23t-40.5 27t-32.5 29.5t-27.5 36t-15.5 42t-7 51.5q0 97 66 144t165 47q83 0 163 -29zM334 961l67 -58l-173 -121l-8 7z" />
    <glyph glyph-name="Zacute.pl" horiz-adv-x="623" 
d="M20 0v11l439 705l-130 -4q-53 -2 -97.5 -17.5t-78 -43t-56 -53t-46.5 -61.5l-8 3l47 192h504v-11l-438 -706l160 5q70 2 127.5 32.5t91 67.5t65.5 91l8 -3l-49 -208h-539zM389 961l67 -58l-173 -121l-8 7z" />
    <glyph glyph-name="acute.pl" 
d="M167 749l82 -55l-154 -152l-9 6z" />
    <glyph glyph-name="acute.ucpl" 
d="M218 961l67 -58l-173 -121l-8 7z" />
    <glyph glyph-name="cacute.pl" horiz-adv-x="465" 
d="M436 112q-45 -127 -187 -127q-102 0 -163 67t-61 178t76 186.5t177 75.5q78 0 132 -26l13 -111l-9 -2q-24 42 -68.5 81.5t-82.5 39.5q-64 0 -102 -54.5t-38 -147.5q0 -97 47 -149.5t127 -52.5q88 0 133 46zM293 749l82 -55l-154 -152l-9 6z" />
    <glyph glyph-name="divide.osf" horiz-adv-x="546" 
d="M52 232v22h442v-22h-442zM273 10q-28 0 -47.5 20t-19.5 47q0 29 19.5 48.5t47.5 19.5q27 0 47 -19.5t20 -48.5q0 -27 -20 -47t-47 -20zM273 334q-28 0 -47.5 20t-19.5 47q0 29 19.5 48.5t47.5 19.5q27 0 47 -19.5t20 -48.5q0 -27 -20 -47t-47 -20z" />
    <glyph glyph-name="eight.osf" horiz-adv-x="468" 
d="M230 -10q-92 0 -148.5 50t-56.5 125q0 64 42 117t104 83q-62 43 -96.5 87.5t-34.5 110.5q0 85 55.5 134.5t143.5 49.5q82 0 135.5 -46t53.5 -112q0 -107 -145 -164q75 -47 117.5 -99.5t42.5 -134.5q0 -97 -61 -149t-152 -52zM230 10q56 0 89 41t33 103q0 28 -9.5 53
t-20.5 41t-36 37t-38.5 30t-46.5 30q-10 6 -15 10q-77 -71 -77 -182q0 -75 30.5 -119t90.5 -44zM269 433q84 53 84 152q0 66 -29.5 104t-87.5 38q-53 0 -84 -34t-31 -87q0 -24 9 -45.5t18 -35.5t33 -32.5t35.5 -26t43.5 -27.5z" />
    <glyph glyph-name="equal.osf" horiz-adv-x="532" 
d="M45 312v22h442v-22h-442zM45 172v22h442v-22h-442z" />
    <glyph glyph-name="f.short" horiz-adv-x="313" 
d="M65 2q24 38 24 137v320h-63v18h63v66q0 110 40.5 172.5t107.5 62.5q38 0 70 -14l11 -105l-6 -2q-7 11 -19.5 30.5t-19 29.5t-15.5 21.5t-14.5 16.5t-10.5 5q-11 0 -21 -19t-16.5 -59.5t-6.5 -94.5v-110h98v-18h-98v-320q0 -96 23 -137v-2h-147v2z" />
    <glyph glyph-name="f_f.short" horiz-adv-x="583" 
d="M65 2q24 38 24 137v320h-63v18h63v46q0 107 55 171t131 64q40 0 62 -14l11 -105l-6 -2q-64 103 -95 103q-23 0 -40.5 -46.5t-17.5 -126.5v-90h170v66q0 110 36 172.5t97 62.5q45 0 75 -14l11 -105l-6 -2q-56 103 -76 103q-10 0 -18 -19t-13.5 -59.5t-5.5 -94.5v-110h98
v-18h-98v-320q0 -96 23 -137v-2h-147v2q24 38 24 137v320h-170v-320q0 -96 23 -137v-2h-147v2z" />
    <glyph glyph-name="five.osf" horiz-adv-x="466" 
d="M165 -245q-54 0 -96 16t-63 34l-16 137l8 2q79 -169 188 -169q60 0 93 47.5t33 118.5q0 100 -66 174.5t-187 104.5l106 277h276l-36 -94h-254l-33 -87q125 -35 204 -117t79 -202q0 -112 -68 -177t-168 -65z" />
    <glyph glyph-name="four.osf" horiz-adv-x="492" 
d="M266 0h-271v10l271 361v2l43 56l59 78h8v-437h109l-16 -70h-93v-195h-110v195zM266 336l-198 -266h198v266z" />
    <glyph glyph-name="four.osfalt" horiz-adv-x="492" 
d="M266 0h-281v10l310 467h137l-417 -453h251v156h110v-156h100l-8 -24h-92v-195h-110v195z" />
    <glyph glyph-name="greater.osf" horiz-adv-x="530" 
d="M55 20v26l407 195l-407 195v26l430 -208v-26z" />
    <glyph glyph-name="less.osf" horiz-adv-x="530" 
d="M45 228v26l430 208v-26l-407 -195l407 -195v-26z" />
    <glyph glyph-name="minus.osf" horiz-adv-x="532" 
d="M45 232v22h442v-22h-442z" />
    <glyph glyph-name="multiply.osf" horiz-adv-x="472" 
d="M236 225l-169 -169l-17 17l169 169l-169 169l17 17l169 -169l169 169l17 -17l-169 -169l169 -169l-17 -17z" />
    <glyph glyph-name="nacute.pl" horiz-adv-x="545" 
d="M196 0h-145v2q23 68 23 192v118q0 79 -45 130v2l141 53v-96l4 -1q76 92 161 92q68 0 104.5 -38.5t36.5 -106.5v-152q0 -75 4 -114.5t19 -78.5v-2h-145v2q22 71 22 192v130q0 47 -22.5 77t-69.5 30q-63 0 -110 -50v-186q0 -133 22 -193v-2zM319 749l82 -55l-154 -152l-9 6
z" />
    <glyph glyph-name="nine.osf" horiz-adv-x="542" 
d="M265 512q109 0 175.5 -83t66.5 -201q0 -68 -23 -134.5t-71 -132t-131.5 -121t-194.5 -90.5l-3 10q105 43 175 122.5t105 177.5q-41 -50 -116 -50q-97 0 -157.5 71t-60.5 173q0 107 68 182.5t167 75.5zM266 492q-126 0 -126 -243q0 -116 31.5 -167.5t92.5 -51.5
q77 0 115 79q18 73 18 145q0 101 -31 169.5t-100 68.5z" />
    <glyph glyph-name="oacute.pl" horiz-adv-x="563" 
d="M281 -15q-105 0 -180.5 75.5t-75.5 177.5q0 101 76.5 177.5t179.5 76.5q104 0 180.5 -76.5t76.5 -177.5q0 -102 -76 -177.5t-181 -75.5zM281 5q73 0 110 67t37 166q0 98 -37.5 166t-109.5 68q-71 0 -108.5 -68t-37.5 -166q0 -99 36.5 -166t109.5 -67zM327 749l82 -55
l-154 -152l-9 6z" />
    <glyph glyph-name="one.osf" horiz-adv-x="263" 
d="M29 0v2q32 34 42 65t10 95v267h-81v11l189 67h2v-345q0 -64 10 -95t42 -65v-2h-214z" />
    <glyph glyph-name="plus.osf" horiz-adv-x="532" 
d="M278 232v-209h-24v209h-209v22h209v209h24v-209h209v-22h-209z" />
    <glyph glyph-name="sacute.pl" horiz-adv-x="399" 
d="M346 363l-6 -2q-66 113 -155 113q-38 0 -60 -21t-22 -53q0 -27 21 -48.5t43 -32t65 -27.5q66 -28 104 -63.5t38 -99.5q0 -71 -52 -107.5t-135 -36.5q-72 0 -147 26l-10 128l6 2q38 -73 77 -105.5t87 -32.5q46 0 69 25.5t23 60.5q0 36 -25 58.5t-81 46.5q-28 12 -35.5 16
t-32 16.5t-33.5 22.5t-23 26.5t-19 36.5t-5 44q0 70 50 103t124 33q75 0 124 -20zM244 749l82 -55l-154 -152l-9 6z" />
    <glyph glyph-name="seven.osf" horiz-adv-x="450" 
d="M10 -245q125 297 364 648h-348l22 94h392v-10q-172 -306 -315 -732h-115z" />
    <glyph glyph-name="six.osf" horiz-adv-x="542" 
d="M277 -10q-109 0 -175.5 83t-66.5 201q0 68 23 134.5t71 132t131.5 121t194.5 90.5l3 -10q-105 -43 -175 -122.5t-105 -177.5q41 50 116 50q97 0 157.5 -71t60.5 -173q0 -107 -68 -182.5t-167 -75.5zM276 10q126 0 126 243q0 116 -31.5 167.5t-92.5 51.5q-77 0 -115 -79
q-18 -73 -18 -145q0 -101 31 -169.5t100 -68.5z" />
    <glyph glyph-name="three.osf" horiz-adv-x="469" 
d="M193 -245q-101 0 -163 41l-25 146l8 2q47 -86 91 -128t98 -42q58 0 92.5 45.5t34.5 112.5q0 86 -55.5 141t-141.5 75v5q87 21 135 75.5t48 134.5q0 57 -23.5 91t-63.5 34q-79 0 -160 -153l-7 2l20 138q61 32 157 32q84 0 133 -37t49 -107q0 -117 -133 -172
q67 -28 109 -83t42 -130q0 -97 -69.5 -160t-175.5 -63z" />
    <glyph glyph-name="three.osfalt" horiz-adv-x="469" 
d="M193 -245q-101 0 -163 41l-25 146l8 2q47 -86 91 -128t98 -42q58 0 92.5 45.5t34.5 112.5q0 86 -55.5 141t-141.5 75v5q86 21 131 67t45 112q0 55 -30 87t-88 32q-79 0 -130 -39l-5 6q69 89 188 89q79 0 127 -39t48 -107q0 -114 -131 -170q67 -28 109 -83t42 -130
q0 -97 -69.5 -160t-175.5 -63z" />
    <glyph glyph-name="two.osf" horiz-adv-x="490" 
d="M26 0v8q134 88 191 173.5t57 176.5q0 61 -23 95t-63 34t-73 -34.5t-67 -104.5l-7 2l20 124q59 33 142 33q88 0 137 -38.5t49 -112.5q0 -150 -226 -258h178q41 0 60.5 12t40.5 46l7 -3l-37 -153h-386z" />
    <glyph glyph-name="two.osfalt" horiz-adv-x="490" 
d="M26 0v8q136 89 196.5 167.5t60.5 155.5q0 57 -30 88.5t-88 31.5q-66 0 -117 -39l-5 6q69 89 188 89q80 0 127.5 -40.5t47.5 -111.5q0 -78 -58.5 -138t-180.5 -119h174q41 0 60.5 12t40.5 46l7 -3l-37 -153h-386z" />
    <glyph glyph-name="zacute.pl" horiz-adv-x="447" 
d="M15 0v7l282 453l-120 -4q-8 0 -16.5 -2t-17.5 -6.5t-16 -8.5t-17 -12.5t-15.5 -13t-16.5 -15.5t-15 -14.5t-15 -15.5t-13 -14l-5 2l33 121h353v-8l-280 -452l131 3q41 2 77 31t78 81l5 -2l-35 -130h-377zM283 749l82 -55l-154 -152l-9 6z" />
    <glyph glyph-name="zero.osf" horiz-adv-x="547" 
d="M273 -10q-102 0 -175 77t-73 181q0 103 73.5 181t174.5 78t175 -77.5t74 -181.5t-73.5 -181t-175.5 -77zM273 10q67 0 100.5 68t33.5 170q0 101 -33.5 170t-100.5 69q-45 0 -76 -35t-44 -87t-13 -117q0 -102 33 -170t100 -68z" />
    </font>
</defs>
</svg>
